BitTorrentTracker PerecTracker.org
BitTorrentTracker PerecTracker.org
    
Регистрация  ·  Вход
 
 · 
Забыли пароль?

  • Привидение / Призрак / Ghost ( Джерри Цукер / Jerry Zucker) [1990, США, Фэнтези, триллер, драма, мелодрама, детектив, BDRip] MVO

    Ответить на тему
     
    Автор Сообщение

    Columb

    Создавать темы 16-Авг-2014 21:57

           

    [Цитировать]

    Привидение / Призрак / Ghost«You will believe»-Страна: США
    Жанр: Фэнтези, триллер, драма, мелодрама, детектив
    Год выпуска: 1990
    Продолжительность: 02:06:39-Перевод: Профессиональный (многоголосый закадровый)
    Cубтитры: нет-Режиссер: Джерри Цукер / Jerry Zucker-В ролях: Патрик Суэйзи, Деми Мур, Вупи Голдберг, Тони Голдуин, Рик Авилес, Стэнли Лоуренс, Кристофер Дж. Кин, Сьюзен Бреслау, Мартина Дэйнан, Рик Клебер-Описание: Сэм и Молли любят друг друга, у них всё складывается как нельзя лучше - новый дом, успехи Сэма на работе, нежные чувства друг к другу... Они возвращаются домой после вечера в театре, и в безлюдном переулке на них нападает грабитель. Защищаясь, Сэм погибает. Теперь у него нет тела, но его дух по какой-то неведомой причине не покидает этот мир. Сэм узнаёт, что его смерть не была случайной, и над Молли также нависла смертельная опасность. Но для Молли он теперь невидим и не слышим, как же предупредить её об этом? Счастливый случай приводит Сэма-призрака в дом мошенницы-медиума Оды Мэй Браун, которая проводит фальшивые спиритические сеансы. Но происходит чудо, она слышит глас духа Сэма. Вот он - единственный способ связаться с Молли и передать ей важное сообщение.-Sample #1 | Sample #2 | Sample #3 | IMDB | КиноПоиск-Тип релиза: BDRip-Видео: 720x400 (1.80:1), 23.976 fps, XviD build 50, 1454 kbps avg, 0.21 bit/pixel
    Аудио: 48 kHz, AC3 Dolby Digital, 2/0 (L,R) ch, 192.00 kbps avg [Russian_MVO]-

    MediaInfo

    General
    Complete name : D:\Мои релизы\Ghost_BDRip_RG_All_Films.avi
    Format : AVI
    Format/Info : Audio Video Interleave
    File size : 1.47 GiB
    Duration : 2h 6mn
    Overall bit rate : 1 656 Kbps
    Writing application : VirtualDubMod 1.5.10.3 | www.virtualdub-fr.org || (build 2550/release)
    Writing library : VirtualDubMod build 2550/release
    Video
    ID : 0
    Format : MPEG-4 Visual
    Format profile : Advanced Simple@L5
    Format settings, BVOP : Yes
    Format settings, QPel : No
    Format settings, GMC : No warppoints
    Format settings, Matrix : Custom
    Codec ID : XVID
    Codec ID/Hint : XviD
    Duration : 2h 6mn
    Bit rate : 1 454 Kbps
    Width : 720 pixels
    Height : 400 pixels
    Display aspect ratio : 16:9
    Frame rate : 23.976 fps
    Color space : YUV
    Chroma subsampling : 4:2:0
    Bit depth : 8 bits
    Scan type : Progressive
    Compression mode : Lossy
    Bits/(Pixel*Frame) : 0.211
    Stream size : 1.29 GiB (88%)
    Writing library : XviD 1.2.1 (UTC 2008-12-04)
    Audio
    ID : 1
    Format : AC-3
    Format/Info : Audio Coding 3
    Mode extension : CM (complete main)
    Codec ID : 2000
    Duration : 2h 6mn
    Bit rate mode : Constant
    Bit rate : 192 Kbps
    Channel(s) : 2 channels
    Channel positions : Front: L R
    Sampling rate : 48.0 KHz
    Bit depth : 16 bits
    Compression mode : Lossy
    Stream size : 174 MiB (12%)
    Alignment : Split accross interleaves
    Interleave, duration : 42 ms (1.00 video frame)
    Interleave, preload duration : 500 ms

    Скриншоты

    Скачать .torrent

    Скачать торрент-файл бесплатно и на максимальной скорости!

    Как скачивать? · Что такое торрент? · Рейтинг и ограничения

    !ВНИМАНИЕ!
    Сайт не распространяет и не хранит электронные версии произведений, а занимается лишь лишь предоставлением доступа к создаваемому пользователями каталогу ссылок на торрент-файлы, которые содержат только списки хеш-сумм, убедительная просьба с жалобами обращаться напрямую к пользователю. Файлы для обмена на трекере предоставлены пользователями сайта, и администрация не несёт ответственности за их содержание. Просьба не заливать файлы, защищенные авторскими правами, а также файлы нелегального содержания!

    [Профиль] [ЛС]
    Показать сообщения:    
    Ответить на тему

    Текущее время: Сегодня, в 06:59

    Часовой пояс: GMT + 2



    Вы не можете начинать темы
    Вы не можете отвечать на сообщения
    Вы не можете редактировать свои сообщения
    Вы не можете удалять свои сообщения
    Вы не можете голосовать в опросах
    Вы не можете прикреплять файлы к сообщениям
    Вы не можете скачивать файлы