BitTorrentTracker PerecTracker.org
BitTorrentTracker PerecTracker.org
    
Регистрация  ·  Вход
 
 · 
Забыли пароль?

  • На что способна любовь / What's Love Got to Do with It (Брайан Гибсон / Brian Gibson) [1993, США, Драма, биография, музыка, HDRip] MVO

    Ответить на тему
     
    Автор Сообщение

    Columb

    Создавать темы 16-Авг-2014 21:40

           

    [Цитировать]

    На что способна любовь / What's Love Got to Do with It«Who needs a heart when a heart can be broken?»-Страна: США
    Жанр: Драма, биография, музыка
    Год выпуска: 1993
    Продолжительность: 01:57:39-Перевод: Профессиональный (многоголосый закадровый)
    Cубтитры: нет-Режиссер: Брайан Гибсон / Brian Gibson-В ролях: Анджела Бассетт, РаВен Лерримор Келли, Вирджиния Кейперс, Лоренс Фишбёрн, Кэнди Александр, Дороти Тортон, Деметрис Читон, Нита Вудс Аллен, Хелен Мари Лавлэйс, Натали Уилсон-Описание: Мало кому из суперзвезд рока выпадала такая драматичная судьба, как Тине Тернер. Урожденная Анна Мэи Баллок, эта скромная девушка, казалось, вытянула счастливый билет в тот момент, когда ее мужем стал удачливый музыкант и продюсер Айк Тернер. Она и в страшном сне не могла предвидеть, что когда ее слава перерастет популярность мужа, ее жизнь станет кошмаром. Айк превратился из прекрасного парня в монстра, из ревности к ее известности избивавшего супругу по полусмерти. И кто знает, как сложилась бы судьба певицы, если бы не музыка. Она была ее призванием. Она же стала силой, помогшей преодолеть ей все невзгоды и стать той самой Тиной Тернер, которую любят миллионы.-Sample | IMDB | КиноПоиск-Тип релиза: HDRip [исх. BDRip 1080p]
    Формат видео: AVI-Видео: 544x288 (1.89:1), 23.976 fps, XviD build 50, 751 kbps avg, 0.20 bit/pixel
    Аудио: 48 kHz, MPEG Layer 3, 2 ch, 128.00 kbps avg [Russian_MVO]-

    MediaInfo

    General
    Complete name : D:\Мои релизы\What's Love Got to Do with It_HDRip_[745]_RG_All_Films.avi
    Format : AVI
    Format/Info : Audio Video Interleave
    File size : 748 MiB
    Duration : 1h 57mn
    Overall bit rate : 889 Kbps
    Writing application : VirtualDubMod 1.5.10.3 | www.virtualdub-fr.org || (build 2550/release)
    Writing library : VirtualDubMod build 2550/release
    Video
    ID : 0
    Format : MPEG-4 Visual
    Format profile : Advanced Simple@L5
    Format settings, BVOP : Yes
    Format settings, QPel : No
    Format settings, GMC : No warppoints
    Format settings, Matrix : Custom
    Codec ID : XVID
    Codec ID/Hint : XviD
    Duration : 1h 57mn
    Bit rate : 751 Kbps
    Width : 544 pixels
    Height : 288 pixels
    Display aspect ratio : 1.889
    Frame rate : 23.976 fps
    Color space : YUV
    Chroma subsampling : 4:2:0
    Bit depth : 8 bits
    Scan type : Progressive
    Compression mode : Lossy
    Bits/(Pixel*Frame) : 0.200
    Stream size : 632 MiB (85%)
    Writing library : XviD 1.2.1 (UTC 2008-12-04)
    Audio
    ID : 1
    Format : MPEG Audio
    Format version : Version 1
    Format profile : Layer 3
    Mode : Joint stereo
    Codec ID : 55
    Codec ID/Hint : MP3
    Duration : 1h 57mn
    Bit rate mode : Constant
    Bit rate : 128 Kbps
    Channel(s) : 2 channels
    Sampling rate : 48.0 KHz
    Compression mode : Lossy
    Stream size : 108 MiB (14%)
    Alignment : Aligned on interleaves
    Interleave, duration : 42 ms (1.00 video frame)
    Interleave, preload duration : 504 ms
    Writing library : LAME3.90.3

    Скриншоты

    Скачать .torrent

    Скачать торрент-файл бесплатно и на максимальной скорости!

    Как скачивать? · Что такое торрент? · Рейтинг и ограничения

    !ВНИМАНИЕ!
    Сайт не распространяет и не хранит электронные версии произведений, а занимается лишь лишь предоставлением доступа к создаваемому пользователями каталогу ссылок на торрент-файлы, которые содержат только списки хеш-сумм, убедительная просьба с жалобами обращаться напрямую к пользователю. Файлы для обмена на трекере предоставлены пользователями сайта, и администрация не несёт ответственности за их содержание. Просьба не заливать файлы, защищенные авторскими правами, а также файлы нелегального содержания!

    [Профиль] [ЛС]
    Показать сообщения:    
    Ответить на тему

    Текущее время: Сегодня, в 00:05

    Часовой пояс: GMT + 2



    Вы не можете начинать темы
    Вы не можете отвечать на сообщения
    Вы не можете редактировать свои сообщения
    Вы не можете удалять свои сообщения
    Вы не можете голосовать в опросах
    Вы не можете прикреплять файлы к сообщениям
    Вы не можете скачивать файлы