BitTorrentTracker PerecTracker.org
BitTorrentTracker PerecTracker.org
    
Регистрация  ·  Вход
 
 · 
Забыли пароль?

  • Виктор / Victor (Тома Жилу / Thomas Gilou) [2009, Франция, Комедия, драма, DVDRip] MVO (НТВ+)

    Ответить на тему
     
    Автор Сообщение

    Columb

    Создавать темы 16-Авг-2014 21:29

           

    [Цитировать]

    Виктор
    Victor
    --Страна: Франция
    Жанр: комедия, драма
    Год выпуска: 2009
    Продолжительность: 01:30:17--Перевод: Профессиональный (многоголосый закадровый) | НТВ+
    Субтитры: нет
    Режиссер: Тома Жилу / Thomas Gilou--В ролях: Ламбер Вильсон, Сара Форестье, Пьер Ришар, Людовик Бертийо, Каролин Бург, Жаклин Корадо, Клементин Селарье, Лилу Фогли, Антуан Дюлери, Катрин Осмален--Описание: Одинокий и никому не нужный старик по имени Виктор уже отживает свой век. Глубокая старость, целый букет хронических болезней и неважное самочувствие заставляют этого человека ходить по краю. Но кто сказал, что 85 лет — это конец? Впереди ещё много нового, интересного, весёлого и… занимательного. И уж кому кто бы мог подумать, что именно Виктору было суждено выиграть общенациональный конкурс, устроенный редакцией одного печатного издательства.
    Так старик возвращается к полноценной жизни, радуясь каждому новому дню и всё новым знакомствам, а также — вспоминая свои юношеские годы и начиная ухлёстывать за прелестными дамами, как ни удивительно и даже ни странно, получая взаимные симпатии и знаки внимания от представительниц прекрасного пола. Жизнь налаживается и всё встаёт на свои места, складываясь в приятную и отрадную мозаику старого-доброго порядка вещей. Но на этом приключения и веселье вовсе не заканчивается, ведь судьба ещё припасла пару-тройку сюрпризов для неугомонного Виктора…-Качество видео: DVDRip
    Формат видео: AVI
    Видео: XviD, 720x304 (2.37:1), 25 fps, 2111 kbps avg, 0.39 bit/pixel
    Аудио: AC3 Dolby Digital, 48 kHz, 192 kbps, 2/0 (L,R) ch
    Семпл: http://sendfile.su/1012002
    !!!!!!!!!!!!!!!!!!!!!!!!!!!!!!!!!!!!!!!!!

    MediaInfo

    Общее
    Полное имя                               : Victor.2009.XviD.DVDRip.AMAPAHT.avi
    Формат                                   : AVI
    Формат/Информация                        : Audio Video Interleave
    Размер файла                             : 1,46 Гбайт
    Продолжительность                        : 1 ч. 30 м.
    Общий поток                              : 2313 Кбит/сек
    Название фильма                          : Victor.2009.XviD.DVDRip.AMAPAHT
    Режиссёр                                 : AMAPAHT
    Жанр                                     : Drama/Crime
    Программа кодирования                    : VirtualDubMod 1.5.10.3 | www.virtualdub-fr.org || (build 2550/release)
    Правообладатель                          : rutracker.org & All Films
    Примечание                               : RusMVO[HTB+]
    Видео
    Идентификатор                            : 0
    Формат                                   : MPEG-4 Visual
    Профиль формата                          : Advanced Simple@L5
    Параметр BVOP формата                    : 2
    Параметр QPel формата                    : Нет
    Параметр GMC формата                     : Без точки перехода
    Параметр матрицы формата                 : Выборочная
    Идентификатор кодека                     : XVID
    Идентификатор кодека/Подсказка           : XviD
    Продолжительность                        : 1 ч. 30 м.
    Битрейт                                  : 2112 Кбит/сек
    Ширина                                   : 720 пикселей
    Высота                                   : 304 пикселя
    Соотношение сторон                       : 2,35:1
    Частота кадров                           : 25,000 кадров/сек
    Цветовое пространство                    : YUV
    Субдискретизация насыщенности            : 4:2:0
    Битовая глубина                          : 8 бит
    Тип развёртки                            : Прогрессивная
    Метод сжатия                             : С потерями
    Бит/(Пиксели*Кадры)                      : 0.386
    Размер потока                            : 1,33 Гбайт (91%)
    Библиотека кодирования                   : XviD 73
    Аудио
    Идентификатор                            : 1
    Формат                                   : AC-3
    Формат/Информация                        : Audio Coding 3
    Расширение режима                        : CM (complete main)
    Параметр Endianness формата              : Big
    Идентификатор кодека                     : 2000
    Продолжительность                        : 1 ч. 30 м.
    Вид битрейта                             : Постоянный
    Битрейт                                  : 192 Кбит/сек
    Каналы                                   : 2 канала
    Расположение каналов                     : Front: L R
    Частота                                  : 48,0 КГц
    Битовая глубина                          : 16 бит
    Метод сжатия                             : С потерями
    Размер потока                            : 124 Мбайт (8%)
    Выравнивание                             : Разделение по промежуткам
    Продолжительность промежутка             : 40  мс. (1,00 видеокадр)
    Время предзагрузки промежутка            : 500  мс.

    Скриншоты

    Скачать .torrent

    Скачать торрент-файл бесплатно и на максимальной скорости!

    Как скачивать? · Что такое торрент? · Рейтинг и ограничения

    !ВНИМАНИЕ!
    Сайт не распространяет и не хранит электронные версии произведений, а занимается лишь лишь предоставлением доступа к создаваемому пользователями каталогу ссылок на торрент-файлы, которые содержат только списки хеш-сумм, убедительная просьба с жалобами обращаться напрямую к пользователю. Файлы для обмена на трекере предоставлены пользователями сайта, и администрация не несёт ответственности за их содержание. Просьба не заливать файлы, защищенные авторскими правами, а также файлы нелегального содержания!

    [Профиль] [ЛС]
    Показать сообщения:    
    Ответить на тему

    Текущее время: Сегодня, в 01:11

    Часовой пояс: GMT + 2



    Вы не можете начинать темы
    Вы не можете отвечать на сообщения
    Вы не можете редактировать свои сообщения
    Вы не можете удалять свои сообщения
    Вы не можете голосовать в опросах
    Вы не можете прикреплять файлы к сообщениям
    Вы не можете скачивать файлы