BitTorrentTracker PerecTracker.org
BitTorrentTracker PerecTracker.org
    
Регистрация  ·  Вход
 
 · 
Забыли пароль?

  • Я - твой герой / Main Tera Hero (Дэвид Дхаван / David Dhawan) [2014, Индия, Комедия, мелодрама, HDRip] MVO + Sub Rus

    Ответить на тему
     
    Автор Сообщение

    Columb

    Создавать темы 16-Авг-2014 21:16

           

    [Цитировать]

    Я - твой герой / Main Tera Hero
    Страна: Индия
    Жанр: Комедия, мелодрама
    Год выпуска: 2014
    Продолжительность: 02:05:35
    Перевод: Любительский (многоголосый закадровый) (ICG)
    Cубтитры: русские (на песни и полные)
    Оригинальная аудиодорожка: Хинди
    Режиссер: Дэвид Дхаван / David Dhawan
    В ролях: Варун Дхаван, Илеана, Наргис Факхри, Арунодай Сингх, Анупам Кхер, Раджпал Ядав, Эвелин Шарма, Манодж Пахва, Суприя Шукла, Ширеш Шарма
    Описание: Наша история об умном и веселом хулигане, ГЕРОЕ, который влюбляется в Сунайну. Но какая же история без злодея! А вот и он, Ангад, коррумпированный полицейский, стремящийся жениться на Сунайне. Он пойдет на все, чтобы Сунайна была его и даже пустит пулю в своего соперника. Но Шину - парень не промах. Его выгоняли из 15 школ, 10 полицейских перевелись из-за него и несколько комиссаров оставили свои участки. Так в чью же сторону склониться чаша весов?

    Качество видео: HDRip
    Формат видео: AVI
    Видео: XviD, 720x304, 1796 Kbps, 24 fps
    Аудио: AC-3, 48.0 KHz, 448 Kbps, 6 ch [Rus]
    Аудио 2: AC-3, 48.0 KHz, 224 Kbps, 2 ch [Hindi]
    Формат субтитров: softsub (SRT)
    Доп. информация:
    о субтитрах: внешние: #полные, #песни
    Совместный релиз и по заказу (спасибо!)
    Перевод и редакция: Tonyvika (спасибо!)

    MediaInfo

    Общее
    Полное имя : D:\Downloads\Main Tera Hero\Main.Tera.Hero.2014.HDRip.Rus.Original.ICG.BT.GF\Main.Tera.Hero.2014.HDRip.Rus.Original.ICG.BT.GF.avi
    Формат : AVI
    Формат/Информация : Audio Video Interleave
    Профиль формата : OpenDML
    Размер файла : 2,18 Гбайт
    Продолжительность : 2 ч. 5 м.
    Общий поток : 2486 Кбит/сек
    Программа кодирования : VirtualDubModRus 1.5.10.2 (build 2542/release)
    Библиотека кодирования : VirtualDubMod build 2542/release
    Видео
    Идентификатор : 0
    Формат : MPEG-4 Visual
    Профиль формата : Advanced Simple@L5
    Параметр BVOP формата : 1
    Параметр QPel формата : Нет
    Параметр GMC формата : Без точки перехода
    Параметр матрицы формата : Default (MPEG)
    Идентификатор кодека : XVID
    Идентификатор кодека/Подсказка : XviD
    Продолжительность : 2 ч. 5 м.
    Битрейт : 1796 Кбит/сек
    Ширина : 720 пикселей
    Высота : 304 пикселя
    Соотношение сторон : 2,35:1
    Частота кадров : 24,000 кадра/сек
    Цветовое пространство : YUV
    Субдискретизация насыщенности : 4:2:0
    Битовая глубина : 8 бит
    Тип развёртки : Прогрессивная
    Метод сжатия : С потерями
    Бит/(Пиксели*Кадры) : 0.342
    Размер потока : 1,58 Гбайт (72%)
    Библиотека кодирования : XviD 64
    Аудио #1
    Идентификатор : 1
    Формат : AC-3
    Формат/Информация : Audio Coding 3
    Расширение режима : CM (complete main)
    Идентификатор кодека : 2000
    Продолжительность : 2 ч. 5 м.
    Вид битрейта : Постоянный
    Битрейт : 448 Кбит/сек
    Каналы : 6 каналов
    Расположение каналов : Front: L C R, Side: L R, LFE
    Частота : 48,0 КГц
    Битовая глубина : 16 бит
    Метод сжатия : С потерями
    Задержка видео : 12 мс.
    Размер потока : 402 Мбайт (18%)
    Выравнивание : Разделение по промежуткам
    Продолжительность промежутка : 42 мс. (1,00 видеокадр)
    Время предзагрузки промежутка : 500 мс.
    Аудио #2
    Идентификатор : 2
    Формат : AC-3
    Формат/Информация : Audio Coding 3
    Расширение режима : CM (complete main)
    Идентификатор кодека : 2000
    Продолжительность : 2 ч. 5 м.
    Вид битрейта : Постоянный
    Битрейт : 224 Кбит/сек
    Каналы : 2 канала
    Расположение каналов : Front: L R
    Частота : 48,0 КГц
    Битовая глубина : 16 бит
    Метод сжатия : С потерями
    Размер потока : 201 Мбайт (9%)
    Выравнивание : Соединение по промежуткам
    Продолжительность промежутка : 42 мс. (1,00 видеокадр)
    Время предзагрузки промежутка : 512 мс.
    Общее
    Полное имя : D:\Downloads\Main Tera Hero\Main.Tera.Hero.2014.HDRip.Rus.Original.ICG.BT.GF\Main.Tera.Hero.2014.HDRip.Rus.Original.ICG.BT.GF.rus.full.srt
    Формат : SubRip
    Размер файла : 143 Кбайт
    Текст
    Формат : SubRip
    Метод сжатия : Без потерь
    Общее
    Полное имя : D:\Downloads\Main Tera Hero\Main.Tera.Hero.2014.HDRip.Rus.Original.ICG.BT.GF\Main.Tera.Hero.2014.HDRip.Rus.Original.ICG.BT.GF.srt
    Формат : SubRip
    Размер файла : 16,1 Кбайт
    Текст
    Формат : SubRip
    Метод сжатия : Без потерь

    Скриншот c названием фильма

    Скриншоты

    Скачать .torrent

    Скачать торрент-файл бесплатно и на максимальной скорости!

    Как скачивать? · Что такое торрент? · Рейтинг и ограничения

    !ВНИМАНИЕ!
    Сайт не распространяет и не хранит электронные версии произведений, а занимается лишь лишь предоставлением доступа к создаваемому пользователями каталогу ссылок на торрент-файлы, которые содержат только списки хеш-сумм, убедительная просьба с жалобами обращаться напрямую к пользователю. Файлы для обмена на трекере предоставлены пользователями сайта, и администрация не несёт ответственности за их содержание. Просьба не заливать файлы, защищенные авторскими правами, а также файлы нелегального содержания!

    [Профиль] [ЛС]
    Показать сообщения:    
    Ответить на тему

    Текущее время: Сегодня, в 03:59

    Часовой пояс: GMT + 2



    Вы не можете начинать темы
    Вы не можете отвечать на сообщения
    Вы не можете редактировать свои сообщения
    Вы не можете удалять свои сообщения
    Вы не можете голосовать в опросах
    Вы не можете прикреплять файлы к сообщениям
    Вы не можете скачивать файлы