Register  ·  Log in
Forgot password?

  • До 16 и старше (С участием Виктора Цоя) (Л. Орлова) [1988, Молодежная программа, DVB]

    Reply to topic
    Author Message


    Post 16-Aug-2014 16:08



    «...до 16 и старше» (С участием Виктора Цоя)-Год выпуска: 1988
    Страна: СССР
    Жанр: молодежная программа
    Продолжительность: 00:45:00
    Перевод: не требуется-Режиссер: Л. Орлова-Описание: Выпуск программы от 1 ноября 1988 года. Сюжеты: встреча с Виктором Цоем – музыкантом, лидером группы «Кино»; о школьных гостиницах в Тбилиси; телеэкскурсия по Карелии; исследование проблемной ситуации, сложившейся в школе поселка Спасская Губа; об историческом классе одной из школ Ленинграда.-Доп. информация: Производство Главной редакции программ для детей и юношества ЦТ.-Качество: DVB
    Формат: MPEG-PS
    Видео: MPEG2, 720x576@768x576 (4:3), 25 fps, ~4838 Kbps
    Аудио: MP2, 48 KHz, 2 ch, 192 Kbps-


    Complete name : ...\До 16 старше (С участием В. Цоя) (1988) [DVB].mpg
    Format : MPEG-PS
    File size : 1.61 GiB
    Duration : 45mn 0s
    Overall bit rate mode : Variable
    Overall bit rate : 5 132 Kbps
    ID : 224 (0xE0)
    Format : MPEG Video
    Format version : Version 2
    Format profile : Main@Main
    Format settings, BVOP : Yes
    Format settings, Matrix : Custom
    Format settings, GOP : Variable
    Duration : 45mn 0s
    Bit rate mode : Variable
    Bit rate : 4 838 Kbps
    Maximum bit rate : 15.0 Mbps
    Width : 720 pixels
    Height : 576 pixels
    Display aspect ratio : 4:3
    Frame rate : 25.000 fps
    Standard : PAL
    Color space : YUV
    Chroma subsampling : 4:2:0
    Bit depth : 8 bits
    Scan type : Interlaced
    Scan order : Top Field First
    Compression mode : Lossy
    Bits/(Pixel*Frame) : 0.467
    Time code of first frame : 00:00:00:00
    Time code source : Group of pictures header
    Stream size : 1.52 GiB (94%)
    ID : 192 (0xC0)
    Format : MPEG Audio
    Format version : Version 1
    Format profile : Layer 2
    Duration : 45mn 0s
    Bit rate mode : Constant
    Bit rate : 192 Kbps
    Channel(s) : 2 channels
    Sampling rate : 48.0 KHz
    Compression mode : Lossy
    Stream size : 61.8 MiB (4%)


    Download .torrent

    Download free and at maximum speed!

    How to Download? · What is a torrent? · Ratings and Limitations

    The site does not extend and does not store electronic(digital) versions of products, and only gives access to a reference catalogue created by users on torrent-files which contain only lists of the hash-sums, the earnest entreaty, with complaints(abuse) to access directly to the user. Files for an exchange on tracker are given by users of a site, and the administration does not bear the responsibility for their maintenance. The request to not fill in the files protected by copyrights, and also files of the illegal maintenance!

    [Profile] [PM]
    Display posts from previous:    
    Reply to topic

    The time now is: Today 22:45

    All times are GMT + 3 Hours

    You cannot post new topics in this forum
    You cannot reply to topics in this forum
    You cannot edit your posts in this forum
    You cannot delete your posts in this forum
    You cannot vote in polls in this forum
    You cannot attach files in this forum
    You cannot download files in this forum