BitTorrentTracker PerecTracker.org
BitTorrentTracker PerecTracker.org
    
Регистрация  ·  Вход
 
 · 
Забыли пароль?

  • Амазонки / Le guerriere dal seno nudo / War Goddess (Теренс Янг / Terence Young) [1973, Италия, Франция, Испания, боевик, драма, приключения, DVDRip] VO (iDimo) + Original Eng

    Ответить на тему
     
    Автор Сообщение

    Columb

    Создавать темы 16-Авг-2014 12:09

           

    [Цитировать]

    Амазонки / Le guerriere dal seno nudo / War GoddessСтрана: Италия, Франция, Испания
    Жанр: боевик, драма, приключения
    Год выпуска: 1973
    Продолжительность: 01:42:40
    Перевод: dsa69 & GreedLoss
    Озвучка: Одноголосая закадровая iDimo
    Cубтитры: нет
    Оригинальная аудиодорожка: английский
    Режиссер: Теренс Янг / Terence Young
    В ролях: Алена Джонстон, Сабина Сун, Розанна Янни, Хельга Лине, Ребекка Поток, Мализа Лонго, Люси Тиллер, Алмут Берг, Лучана Палуцци, Анджело Инфанти
    Описание: Доисторические времена. Племена мужчин и женщин обитают раздельно. Новая королева племени амазонок ведет своих подруг на встречу с греческими солдатами для продолжения рода. Но греки не знают, что поблизости находится другое племя мужчин, которым также не хватает женщин. На обратном пути домой на амазонок нападают дикие воины, но женщинам удается отбиться. Дикари решают окружить деревню амазонок и поймать их в засаду.
    Тем временем королева амазонок обнаруживает, что беременна. Она не может решить: оставить ребенка в живых или убить его. Она отправляется на встречу с предводителем греков, которого считает отцом младенца. Тот уговаривает ее не убивать ребенка, а покинуть свое племя вместе с ним. Королева амазонок соглашается. Тем временем ее подруги думают, что их предводительница была похищена и бросаются в погоню за племенем греков…
    Сэмпл: http://multi-up.com/963531
    Качество видео: DVDRip
    Формат видео: AVI
    Видео: 720x400 (1.80:1), 29.970 fps, XviD build 50 ~1749 kbps avg, 0.20 bit/pixel
    Аудио: 48 kHz, MPEG Layer 3, 2 ch, ~128.00 kbps avg русский
    Аудио 2: 48 kHz, MPEG Layer 3, 2 ch, ~128.00 kbps avg английский
    17+

    MediaInfo

    Format : AVI
    Format/Info : Audio Video Interleave
    File size : 1.45 GiB
    Duration : 1h 42mn
    Overall bit rate : 2 024 Kbps
    Writing application : VirtualDubMod 1.5.4.1 (build 2178/release)
    Writing library : VirtualDubMod build 2178/release
    Video
    ID : 0
    Format : MPEG-4 Visual
    Format profile : Advanced Simple@L5
    Format settings, BVOP : 1
    Format settings, QPel : No
    Format settings, GMC : No warppoints
    Format settings, Matrix : Custom
    Codec ID : XVID
    Codec ID/Hint : XviD
    Duration : 1h 42mn
    Bit rate : 1 751 Kbps
    Width : 720 pixels
    Height : 400 pixels
    Display aspect ratio : 16:9
    Frame rate : 29.970 fps
    Color space : YUV
    Chroma subsampling : 4:2:0
    Bit depth : 8 bits
    Scan type : Progressive
    Compression mode : Lossy
    Bits/(Pixel*Frame) : 0.203
    Stream size : 1.26 GiB (86%)
    Writing library : XviD 1.2.1 (UTC 2008-12-04)
    Audio #1
    ID : 1
    Format : MPEG Audio
    Format version : Version 1
    Format profile : Layer 3
    Codec ID : 55
    Codec ID/Hint : MP3
    Duration : 1h 42mn
    Bit rate mode : Constant
    Bit rate : 128 Kbps
    Channel(s) : 2 channels
    Sampling rate : 48.0 KHz
    Compression mode : Lossy
    Delay relative to video : 5ms
    Stream size : 94.0 MiB (6%)
    Alignment : Split accross interleaves
    Interleave, duration : 33 ms (1.00 video frame)
    Interleave, preload duration : 500 ms
    Audio #2
    ID : 2
    Format : MPEG Audio
    Format version : Version 1
    Format profile : Layer 3
    Codec ID : 55
    Codec ID/Hint : MP3
    Duration : 1h 42mn
    Bit rate mode : Constant
    Bit rate : 128 Kbps
    Channel(s) : 2 channels
    Sampling rate : 48.0 KHz
    Compression mode : Lossy
    Stream size : 94.0 MiB (6%)
    Alignment : Split accross interleaves
    Interleave, duration : 33 ms (1.00 video frame)
    Interleave, preload duration : 500 ms

    Скриншот c названием фильма

    Скриншоты



    Скачать .torrent

    Скачать торрент-файл бесплатно и на максимальной скорости!

    Как скачивать? · Что такое торрент? · Рейтинг и ограничения

    !ВНИМАНИЕ!
    Сайт не распространяет и не хранит электронные версии произведений, а занимается лишь лишь предоставлением доступа к создаваемому пользователями каталогу ссылок на торрент-файлы, которые содержат только списки хеш-сумм, убедительная просьба с жалобами обращаться напрямую к пользователю. Файлы для обмена на трекере предоставлены пользователями сайта, и администрация не несёт ответственности за их содержание. Просьба не заливать файлы, защищенные авторскими правами, а также файлы нелегального содержания!

    [Профиль] [ЛС]
    Показать сообщения:    
    Ответить на тему

    Текущее время: Сегодня, в 04:13

    Часовой пояс: GMT + 2



    Вы не можете начинать темы
    Вы не можете отвечать на сообщения
    Вы не можете редактировать свои сообщения
    Вы не можете удалять свои сообщения
    Вы не можете голосовать в опросах
    Вы не можете прикреплять файлы к сообщениям
    Вы не можете скачивать файлы