BitTorrentTracker PerecTracker.org
BitTorrentTracker PerecTracker.org
    
Регистрация  ·  Вход
 
 · 
Забыли пароль?

  • Прикончи меня, детка / Kill Me Baby (Ямакава Ёсики) [TV] [13 из 13] [без хардсаба] [RUS(ext), JAP+SUB] [2012 г., комедия, BDRip] [720p]

    Ответить на тему
     
    Автор Сообщение

    Columb

    Создавать темы 16-Авг-2014 11:48

           

    [Цитировать]

    -Год выпуска: 2012
    Страна: Япония
    Жанр: комедия
    Продолжительность: 13 эп. по 24 мин.
    Выпуск: c 06.01.2012 по 30.03.2012-Перевод:

  • русские субтитры от Advantage (полные/вспомогательные)
    оформление: nismo, редакторы: Rotten Kepken, Schum, переводчик: Tassadar
    -Режиссер: Ямакава Ёсики
    Студия: J.C. Staff-Описание:
    Иностранка Соня – наемная убийца, живущая под легендой ученицы старшей школы. Несмотря на профессионализм и опыт «трудовой деятельности», до дрожи в коленках боится тараканов, призраков и диких животных. Агири Госики – ниндзя из той же организации, работающая под схожей легендой, вечно расслабленная девушка, не упускающая, однако, возможности слегка заработать на стороне. Ясуна Орибэ – абсолютно безбашенная Сонина одноклассница. И Девочка-без-имени, которую злые авторы придумали неизвестно для чего. Вот и все персонажи истории!
    А теперь представьте, на что похожа японская школа, если для Ясуны общение и веселая тусовка с киллером и куноити – способ развлечься и сбросить напряжение? Если учесть, что по души подружек регулярно являются конкуренты, заказчики и профессиональные мстители, то жизнь простой японской школьницы надолго стала лучше и веселее!
    © Hollow, World Art-Информационные ссылки: AniDB || World Art || MAL-Качество: BDRip
    Энкод: Winter - RG Pantheon
    Тип видео: без хардсаба
    Формат: mkv
    Видео: x264 (Hi10p), 1280x720, ~2200 Kbps, 23.976 fps
    Аудио JAP: Vorbis, 48000Hz, ~256 Kbps, 2ch
    Аудио RUS 1-2: AC3, 48000Hz, ~192 Kbps, 2ch (внешними файлами)
    Аудио RUS 3-4: AC3, 48000Hz, ~192 Kbps, 2ch (внешними файлами)
    Аудио RUS 5-6: AC3, 48000Hz, ~192 Kbps, 2ch (внешними файлами)
    Аудио RUS 7-8: AC3, 48000Hz, ~192 Kbps, 2ch (внешними файлами)-

    Список озвучек в раздаче
  • одноголосая (жен.) от Milirina (Anything-group)
  • одноголосая (жен.) от Persona99 (GetSmart)
  • одноголосая (жен.) от NASTR (MCA)
  • одноголосая (муж.) от Wolfys (AniDub)
  • одноголосая (муж.) от Мистас (ArtVoice)
  • одноголосая (муж.) от Rezan (WiaDub)
  • одноголосая (муж.) от Hikuro (Opendub)
  • трехголосая от Silv, Lupin, Eladiel (Anilibria) [1-9]

    Список эпизодов

    01. Dogs and Ninjas Underneath the Cherry Blossoms
    02. A Balloon Bear With Nunchaku
    03. Of Esper`s Curse, Rainy Days, and Sumo
    04. Of Ice, Watermelon, and Assassins
    05. Of Selfless Festivals, the Sea, and Puppets
    06. Home Visits, Storms and Ice
    07. Of Culture, Juggling, and Battle
    08. Traps, Instruments and Stabbing
    09. Of Lures, Dirt, and Forgotten Branches
    10. Of Santa, Icicles, and Snowmen
    11. Of Baths, Mochi, and the First Dream of the Year
    12. Of Chocolate, Sleep, and Wounds
    13. Of Kill, Me and Baby

    Скриншоты


    Подробные тех. данные

    Общее
    Уникальный идентификатор : 229603145113061731552617870584696027347 (0xACBBF50E53E41B14B1A13077957838D3)
    Полное имя : W:\ANIMATION\720p\Kill Me Baby [BD] [720p]\[Winter] Kill Me Baby 01 [BDrip 1280x720 x264 Vorbis].mkv
    Формат : Matroska
    Версия формата : Version 2
    Размер файла : 576 Мбайт
    Продолжительность : 24 м.
    Режим общего битрейта : Переменный
    Общий поток : 3328 Кбит/сек
    Дата кодирования : UTC 2012-09-12 12:34:38
    Программа кодирования : mkvmerge v2.9.7 ('Tenderness') built on Jul 1 2009 18:43:35
    Библиотека кодирования : libebml v0.7.7 + libmatroska v0.8.1
    Видео
    Идентификатор : 1
    Формат : AVC
    Формат/Информация : Advanced Video Codec
    Профиль формата : High 10@L4.1
    Параметр CABAC формата : Да
    Параметр ReFrames формата : 9 кадров
    Идентификатор кодека : V_MPEG4/ISO/AVC
    Продолжительность : 24 м.
    Битрейт : 3005 Кбит/сек
    Ширина : 1280 пикселей
    Высота : 720 пикселей
    Соотношение сторон : 16:9
    Режим частоты кадров : Постоянный
    Частота кадров : 23,976 кадра/сек
    Цветовое пространство : YUV
    Субдискретизация насыщенности : 4:2:0
    Битовая глубина : 10 бит
    Тип развёртки : Прогрессивная
    Бит/(Пиксели*Кадры) : 0.136
    Размер потока : 520 Мбайт (90%)
    Библиотека кодирования : x264 core 125 r2200 999b753
    Настройки программы : cabac=1 / ref=9 / deblock=1:-2:-2 / analyse=0x3:0x133 / me=umh / subme=9 / psy=1 / psy_rd=0.90:0.00 / mixed_ref=1 / me_range=24 / chroma_me=1 / trellis=2 / 8x8dct=1 / cqm=0 / deadzone=21,11 / fast_pskip=1 / chroma_qp_offset=-2 / threads=6 / lookahead_threads=1 / sliced_threads=0 / nr=0 / decimate=0 / interlaced=0 / bluray_compat=0 / constrained_intra=0 / bframes=8 / b_pyramid=2 / b_adapt=2 / b_bias=0 / direct=1 / weightb=1 / open_gop=0 / weightp=2 / keyint=250 / keyint_min=23 / scenecut=40 / intra_refresh=0 / rc=crf / mbtree=0 / crf=15.7 / qcomp=0.70 / qpmin=9 / qpmax=40 / qpstep=4 / ip_ratio=1.40 / pb_ratio=1.30 / aq=1:0.90
    Default : Да
    Forced : Нет
    Аудио
    Идентификатор : 2
    Формат : Vorbis
    Параметр Floor формата : 1
    Идентификатор кодека : A_VORBIS
    Продолжительность : 24 м.
    Вид битрейта : Переменный
    Битрейт : 256 Кбит/сек
    Каналы : 2 канала
    Частота : 48,0 КГц
    Метод сжатия : С потерями
    Размер потока : 44,3 Мбайт (8%)
    Библиотека кодирования : libVorbis (Schaufenugget) (20101101 (Schaufenugget))
    Язык : Japanese
    Default : Да
    Forced : Нет
    Скачать .torrent

    Скачать торрент-файл бесплатно и на максимальной скорости!

    Как скачивать? · Что такое торрент? · Рейтинг и ограничения

    !ВНИМАНИЕ!
    Сайт не распространяет и не хранит электронные версии произведений, а занимается лишь лишь предоставлением доступа к создаваемому пользователями каталогу ссылок на торрент-файлы, которые содержат только списки хеш-сумм, убедительная просьба с жалобами обращаться напрямую к пользователю. Файлы для обмена на трекере предоставлены пользователями сайта, и администрация не несёт ответственности за их содержание. Просьба не заливать файлы, защищенные авторскими правами, а также файлы нелегального содержания!

  • [Профиль] [ЛС]
    Показать сообщения:    
    Ответить на тему

    Текущее время: Сегодня, в 06:10

    Часовой пояс: GMT + 2



    Вы не можете начинать темы
    Вы не можете отвечать на сообщения
    Вы не можете редактировать свои сообщения
    Вы не можете удалять свои сообщения
    Вы не можете голосовать в опросах
    Вы не можете прикреплять файлы к сообщениям
    Вы не можете скачивать файлы