BitTorrentTracker PerecTracker.org
BitTorrentTracker PerecTracker.org
    
Регистрация  ·  Вход
 
 · 
Забыли пароль?

  • Нева / Neva (Биркан Уз, Джан Арджа / Birkan Uz, Can Arca) [2013, Турция, драма, HDRip] Sub Rus

    Ответить на тему
     
    Автор Сообщение

    Columb

    Создавать темы 16-Авг-2014 09:51

           

    [Цитировать]

    Нева / Neva
    Страна: Турция
    Жанр: драма
    Год выпуска: 2013
    Продолжительность: 01:36:02
    Перевод: Субтитры (перевод Эльвина Аскерова, субтитры Галины Ерофеевой для сайта Wide World Passion)
    Cубтитры: русские
    Оригинальная аудиодорожка: турецкий
    Режиссер: Биркан Уз, Джан Арджа / Birkan Uz, Can Arca
    В ролях: Башак Парлак, Шюкрю Озиылдыз, Бедиа Йенер, Левент Оздилек и др.
    Описание: Любовь - дает нам право, безоговорочно, верить своей второй половинке или наоборот – вызывает множество вопросов? До встречи, Нева и Ылгын, прожив четверть века, еще не познали такое волшебное чувство, как любовь. Но, однажды, и в их сердца попала стрела Амура…
    Сможет ли их любовь с первого взгляда – стать счастливой и настоящей? И, оставив позади все вопросы и сомнения, остаться прекрасной, как в первую минуту, когда их глаза случайно встретились?
    Но, жизнь, жестока...и диктует свои правила…сможет ли Ылгын простить когда-нибудь ошибки прошлого...

    Сэмпл: http://multi-up.com/992532
    Качество видео: HDRip
    Формат видео: AVI
    Видео: 720x304 (2.37:1), 25 fps, XviD MPEG-4 ~1473 kbps avg, 0.27 bit/pixel
    Аудио: 48 kHz, MPEG Layer 3, 2 ch, ~128.00 kbps avg
    Формат субтитров: hardsub (неотключаемые)

    MediaInfo

    Общее
    Формат : AVI
    Формат/Информация : Audio Video Interleave
    Профиль формата : OpenDML
    Размер файла : 1,08 Гбайт
    Продолжительность : 1 ч. 36 м.
    Общий поток : 1608 Кбит/сек
    Программа кодирования : Lavf52.39.1
    Видео
    Идентификатор : 0
    Формат : xvid
    Идентификатор кодека : xvid
    Продолжительность : 1 ч. 36 м.
    Битрейт : 1464 Кбит/сек
    Ширина : 720 пикселей
    Высота : 304 пикселя
    Соотношение сторон : 2,35:1
    Частота кадров : 25,000 кадров/сек
    Бит/(Пиксели*Кадры) : 0.268
    Размер потока : 1006 Мбайт (91%)
    Аудио
    Идентификатор : 1
    Формат : MPEG Audio
    Версия формата : Version 1
    Профиль формата : Layer 3
    Режим : Joint stereo
    Расширение режима : MS Stereo
    Идентификатор кодека : 55
    Идентификатор кодека/Подсказка : MP3
    Продолжительность : 1 ч. 36 м.
    Вид битрейта : Постоянный
    Битрейт : 128 Кбит/сек
    Каналы : 2 канала
    Частота : 48,0 КГц
    Метод сжатия : С потерями
    Размер потока : 87,9 Мбайт (8%)
    Выравнивание : Соединение по промежуткам
    Продолжительность промежутка : 24 мс. (0,60 видеокадр)
    Время предзагрузки промежутка : 24 мс.
    Библиотека кодирования : LAME3.96.1

    Скриншоты

    Скачать .torrent

    Скачать торрент-файл бесплатно и на максимальной скорости!

    Как скачивать? · Что такое торрент? · Рейтинг и ограничения

    !ВНИМАНИЕ!
    Сайт не распространяет и не хранит электронные версии произведений, а занимается лишь лишь предоставлением доступа к создаваемому пользователями каталогу ссылок на торрент-файлы, которые содержат только списки хеш-сумм, убедительная просьба с жалобами обращаться напрямую к пользователю. Файлы для обмена на трекере предоставлены пользователями сайта, и администрация не несёт ответственности за их содержание. Просьба не заливать файлы, защищенные авторскими правами, а также файлы нелегального содержания!

    [Профиль] [ЛС]
    Показать сообщения:    
    Ответить на тему

    Текущее время: Сегодня, в 06:06

    Часовой пояс: GMT + 2



    Вы не можете начинать темы
    Вы не можете отвечать на сообщения
    Вы не можете редактировать свои сообщения
    Вы не можете удалять свои сообщения
    Вы не можете голосовать в опросах
    Вы не можете прикреплять файлы к сообщениям
    Вы не можете скачивать файлы