BitTorrentTracker PerecTracker.org
BitTorrentTracker PerecTracker.org
    
Регистрация  ·  Вход
 
 · 
Забыли пароль?

  • CMA Music Festival • Country's Night to Rock [2014, Country, Pop, Rock, HDTV 720p]

    Ответить на тему
     
    Автор Сообщение

    Columb

    Создавать темы 15-Авг-2014 18:46

           

    [Цитировать]




    Жанр: Country, Pop, Rock
    Продолжительность: 02:05:44
    Год выпуска: 2014
    Качество: HDTV 720p
    Контейнер: MKV
    Видео кодек: H.264
    Аудио кодек: AC3
    Видео: MPEG4 Video (H264) 1280x720 23.976fps 6660Kbps
    Аудио: Dolby AC3 48000Hz 6ch 448kbp

    Треклист

    CMA Music Festival – четырехдневный музыкальный фестиваль, объединяющий исполнителей в стиле кантри, проводится ежегодно Ассоциацией музыки кантри в Нэшвиле, штат Теннесси. Начиная с 2004 года телеканалом АВС начата трансляция специального двухчасового выпуска, названного "CMA Music Festival: Country’s Night to Rock".
    Blake Shelton
    Brad Paisley
    Brantley Gilbert
    Carrie Underwood
    Cole Swindell
    Darius Rucker
    Dierks Bentley
    Eric Church
    Faith Hill
    Florida Georgia Line
    Gwen Sebastian
    Hunter Hayes
    Jake Owen
    Jason Aldean
    Justin Moore
    Keith Urban
    Lady Antebellum
    Little Big Town
    Luke Bryan
    Lzzy Hale
    Miranda Lambert
    Nikki Sixx of Motley Crue
    Rascal Flatts
    Richie Sambora
    The Band Perry
    Thomas Rhett
    Tim McGraw
    Vince Neil of Motley Crue
    Zac Brown Band

    Отчёт MediaInfo / BDInfo

    GeneralUnique ID : 232186927945872386257669998955859994380 (0xAEAD93628ED06B94957CF8776C8EE70C)Complete name : L:\CMA Music Festival - Country's Night to Rock 2014.mkvFormat : MatroskaFormat version : Version 2File size : 6.24 GiBDuration : 2h 5mnOverall bit rate : 7 109 KbpsEncoded date : UTC 2014-08-09 13:02:58Writing application : mkvmerge v4.0.0 ('The Stars were mine') built on Jun 6 2010 16:18:42Writing library : libebml v1.0.0 + libmatroska v1.0.0
    VideoID : 1Format : AVCFormat/Info : Advanced Video CodecFormat profile : High@L4.1Format settings, CABAC : YesFormat settings, ReFrames : 9 framesCodec ID : V_MPEG4/ISO/AVCDuration : 2h 5mnBit rate : 6 660 KbpsWidth : 1 280 pixelsHeight : 720 pixelsDisplay aspect ratio : 16:9Frame rate mode : ConstantFrame rate : 23.976 fpsColor space : YUVChroma subsampling : 4:2:0Bit depth : 8 bitsScan type : ProgressiveBits/(Pixel*Frame) : 0.301Stream size : 5.73 GiB (92%)Writing library : x264 core 130 r2273 b3065e6Encoding settings : cabac=1 / ref=9 / deblock=1:-2:-2 / analyse=0x3:0x133 / me=umh /subme=11 / psy=1 / psy_rd=1.00:0.10 / mixed_ref=1 / me_range=32 / chroma_me=1 / trellis=2 /8x8dct=1 / cqm=0 / deadzone=21,11 / fast_pskip=0 / chroma_qp_offset=-3 / threads=6 /lookahead_threads=1 / sliced_threads=0 / nr=0 / decimate=0 / interlaced=0 / bluray_compat=0 /constrained_intra=0 / bframes=8 / b_pyramid=2 / b_adapt=2 / b_bias=0 / direct=3 / weightb=1 /open_gop=0 / weightp=2 / keyint=250 / keyint_min=23 / scenecut=40 / intra_refresh=0 / rc=2pass /mbtree=0 / bitrate=6660 / ratetol=1.0 / qcomp=0.60 / qpmin=0 / qpmax=69 / qpstep=4 / cplxblur=20.0 /qblur=0.5 / ip_ratio=1.40 / pb_ratio=1.30 / aq=1:0.80Language : EnglishDefault : NoForced : No
    AudioID : 2Format : AC-3Format/Info : Audio Coding 3Mode extension : CM (complete main)Format settings, Endianness : BigCodec ID : A_AC3Duration : 2h 5mnBit rate mode : ConstantBit rate : 448 KbpsChannel(s) : 6 channelsChannel positions : Front: L C R, Side: L R, LFESampling rate : 48.0 KHzBit depth : 16 bitsCompression mode : LossyStream size : 403 MiB (6%)Language : EnglishDefault : YesForced : No

    Скриншоты Участники


    Скриншоты программа

    Скачать .torrent

    Скачать торрент-файл бесплатно и на максимальной скорости!

    Как скачивать? · Что такое торрент? · Рейтинг и ограничения

    !ВНИМАНИЕ!
    Сайт не распространяет и не хранит электронные версии произведений, а занимается лишь лишь предоставлением доступа к создаваемому пользователями каталогу ссылок на торрент-файлы, которые содержат только списки хеш-сумм, убедительная просьба с жалобами обращаться напрямую к пользователю. Файлы для обмена на трекере предоставлены пользователями сайта, и администрация не несёт ответственности за их содержание. Просьба не заливать файлы, защищенные авторскими правами, а также файлы нелегального содержания!

    [Профиль] [ЛС]
    Показать сообщения:    
    Ответить на тему

    Текущее время: Сегодня, в 22:54

    Часовой пояс: GMT + 2



    Вы не можете начинать темы
    Вы не можете отвечать на сообщения
    Вы не можете редактировать свои сообщения
    Вы не можете удалять свои сообщения
    Вы не можете голосовать в опросах
    Вы не можете прикреплять файлы к сообщениям
    Вы не можете скачивать файлы