BitTorrentTracker PerecTracker.org
BitTorrentTracker PerecTracker.org
    
Регистрация  ·  Вход
 
 · 
Забыли пароль?

  • Кенгуру Джекпот / Kangaroo Jack (Дэвид МакНэлли / David McNally) [2003, комедия, криминал, приключения, DVDRip] Dub + MVO + Sub Rus + Original Eng

    Ответить на тему
     
    Автор Сообщение

    Columb

    Создавать темы 15-Авг-2014 17:41

           

    [Цитировать]

    Кенгуру Джекпот / Kangaroo JackСтрана: США, Австралия
    Жанр: комедия, криминал, приключения
    Год выпуска: 2003
    Продолжительность: 01:25:25
    Перевод: Профессиональный (дублированный)
    Перевод 2: Профессиональный (многоголосый закадровый)
    Cубтитры: русские
    Оригинальная аудиодорожка: английский
    Режиссер: Дэвид МакНэлли
    В ролях: Джерри О`Коннелл, Энтони Андерсон, Кристофер Уокен, Эстелла Уоррен, Дайан Кэннон, Мартон Чокас, Майкл Шэннон, Билл Хантер, Дэвид Нгумбуджарра
    Описание: Музыкант и его лучший друг, Нью-Йоркский дизайнер причесок, оказываются вовлеченными в делишки мафии и вынуждены отправится в Австралию, чтобы передать там 50 тысяч долларов. Но простая на вид задача превращается в настоящее испытание, когда некое неблагоразумное кенгуру вместе с их деньгами пускается в бега...
    Сэмпл: http://multi-up.com/891575
    Качество: DVDRip
    Формат: AVI
    Видео: XVID, 720x304, 2.35:1, 25 fps, 1668 Kbps
    Аудио #1: AC3, 48000Hz, 384kbps, 6ch, DUB
    Аудио #2: AC3, 48000Hz, 384kbps, 6ch, ENG
    Аудио #3: AC3, 48000Hz, 384kbps, 6ch, MVO || Отдельно
    Субтитры: softsub (SRT)

    MediaInfo

    General
    Complete name : E:\Кенгуру Джекпот\[2003] Kangaroo Jack.avi
    Format : AVI
    Format/Info : Audio Video Interleave
    File size : 1.46 GiB
    Duration : 1h 25mn
    Overall bit rate : 2 450 Kbps
    Movie name : fozzy412
    Writing application : VirtualDubMod 1.5.10.2 (build 2540/release)
    Writing library : VirtualDubMod build 2540/release
    Video
    ID : 0
    Format : MPEG-4 Visual
    Format profile : Advanced Simple@L5
    Format settings, BVOP : 1
    Format settings, QPel : No
    Format settings, GMC : No warppoints
    Format settings, Matrix : Custom
    Codec ID : XVID
    Codec ID/Hint : XviD
    Duration : 1h 25mn
    Bit rate : 1 668 Kbps
    Width : 720 pixels
    Height : 304 pixels
    Display aspect ratio : 2.35:1
    Frame rate : 25.000 fps
    Color space : YUV
    Chroma subsampling : 4:2:0
    Bit depth : 8 bits
    Scan type : Progressive
    Compression mode : Lossy
    Bits/(Pixel*Frame) : 0.305
    Stream size : 1 019 MiB (68%)
    Writing library : XviD 64
    Audio #1
    ID : 1
    Format : AC-3
    Format/Info : Audio Coding 3
    Mode extension : CM (complete main)
    Codec ID : 2000
    Duration : 1h 25mn
    Bit rate mode : Constant
    Bit rate : 384 Kbps
    Channel(s) : 6 channels
    Channel positions : Front: L C R, Side: L R, LFE
    Sampling rate : 48.0 KHz
    Bit depth : 16 bits
    Compression mode : Lossy
    Stream size : 235 MiB (16%)
    Alignment : Split accross interleaves
    Interleave, duration : 40 ms (1.00 video frame)
    Interleave, preload duration : 500 ms
    Audio #2
    ID : 2
    Format : AC-3
    Format/Info : Audio Coding 3
    Mode extension : CM (complete main)
    Codec ID : 2000
    Duration : 1h 25mn
    Bit rate mode : Constant
    Bit rate : 384 Kbps
    Channel(s) : 6 channels
    Channel positions : Front: L C R, Side: L R, LFE
    Sampling rate : 48.0 KHz
    Bit depth : 16 bits
    Compression mode : Lossy
    Stream size : 235 MiB (16%)
    Alignment : Split accross interleaves
    Interleave, duration : 40 ms (1.00 video frame)
    Interleave, preload duration : 500 ms

    Скриншоты

    Скачать .torrent

    Скачать торрент-файл бесплатно и на максимальной скорости!

    Как скачивать? · Что такое торрент? · Рейтинг и ограничения

    !ВНИМАНИЕ!
    Сайт не распространяет и не хранит электронные версии произведений, а занимается лишь лишь предоставлением доступа к создаваемому пользователями каталогу ссылок на торрент-файлы, которые содержат только списки хеш-сумм, убедительная просьба с жалобами обращаться напрямую к пользователю. Файлы для обмена на трекере предоставлены пользователями сайта, и администрация не несёт ответственности за их содержание. Просьба не заливать файлы, защищенные авторскими правами, а также файлы нелегального содержания!

    [Профиль] [ЛС]
    Показать сообщения:    
    Ответить на тему

    Текущее время: Сегодня, в 18:42

    Часовой пояс: GMT + 2



    Вы не можете начинать темы
    Вы не можете отвечать на сообщения
    Вы не можете редактировать свои сообщения
    Вы не можете удалять свои сообщения
    Вы не можете голосовать в опросах
    Вы не можете прикреплять файлы к сообщениям
    Вы не можете скачивать файлы