BitTorrentTracker PerecTracker.org
BitTorrentTracker PerecTracker.org
    
Регистрация  ·  Вход
 
 · 
Забыли пароль?

  • На том свете / Приход царства / Kingdom Come (Дуг Макгенри / Doug McHenry) [2001, США, комедия, мелодрама, HDTV 1080i] MVO (1 канал)

    Ответить на тему
     
    Автор Сообщение

    Columb

    Создавать темы 15-Авг-2014 15:55

           

    [Цитировать]

    На том свете / Приход царства / Kingdom Come
    Страна: США
    Жанр: комедия, мелодрама
    Год выпуска: 2001
    Продолжительность: 01:27:41
    Перевод: Профессиональный (многоголосый закадровый) 1 канал
    Cубтитры: нет
    Оригинальная аудиодорожка: нет
    Режиссер: Дуг Макгенри / Doug McHenry
    В ролях: LL Кул Джей, Джада Пинкетт Смит, Вивика А. Фокс, Лоретта Дивайн, Энтони Андерсон, Тони Брэкстон, Седрик «Развлекатель», Дариус МакКрэри, Вупи Голдберг, Ричард Гант
    Описание: Искрометная афро-американская комедия, как обычно, понятная только самим афро-американцам. Речь идет о трех днях из жизни семьи Слокамбов, которая собирается, чтобы урегулировать семейные проблемы, возникшие в результате гибели главы этого небольшого клана - грозного «короля» Вудроу «Бада» Слокамба. Дело происходит жарким летом, и в то время, как изображаемый город тонет в потоках зноя, изображаемая семейка по потери пульса занимается выяснением отношений. Все это выглядит и смешно, и трагично, но все-таки смешного больше - потому что понимаешь: все конфликты этих нервных, но симпатичных негров не могут закончиться плохо. Более того: смерть их патриарха оказывается всего лишь средством для того, чтобы семья, наконец, почувствовала себя единым целым. Достигается это нелегко: через бесконечные разборки над гробом преставившегося главы семейства, через споры о том, сколько стоит заплатить за похороны, подонок ли начальник похоронной компании и так далее.
    Вупи Голдберг исполняет роль матери этого вновьобразованного осиного гнезда, знаменитый рэпер ЛЛ Кул Джей - ее старшего сына, который «в контрах» со своей женой. Вообще, для «черного» кино состав получился весьма звездным - одно привлечение Тони Брэкстон чего стоит.
    Доп. информация: HDTV имеет большее наполнение кадра, чем DVD
    Сэмпл: http://yadi.sk/d/SrQmpZTtRZbVJ
    Качество видео: HDTV 1080i
    Формат видео: ts
    Видео: AVC, 1920x1080 (16/9), 25.000 fps, 12.7 Mbps (0.244 bit/pixel)
    Аудио: MP2, 48.0 KHz, 2 ch, 192 Kbps, CBR (Russian)

    MediaInfo

    Общее
    Идентификатор : 3 (0x3)
    Полное имя : K:\На том свете.ts
    Формат : MPEG-TS
    Размер файла : 8,45 Гбайт
    Продолжительность : 1 ч. 27 м.
    Режим общего битрейта : Переменный
    Общий поток : 13,8 Мбит/сек
    Видео
    Идентификатор : 2141 (0x85D)
    Идентификатор меню : 21004 (0x520C)
    Формат : AVC
    Формат/Информация : Advanced Video Codec
    Профиль формата : Main@L4.0
    Параметр CABAC формата : Да
    Параметр ReFrames формата : 3 кадра
    Идентификатор кодека : 27
    Продолжительность : 1 ч. 27 м.
    Битрейт : 12,9 Мбит/сек
    Ширина : 1920 пикселей
    Высота : 1080 пикселей
    Соотношение сторон : 16:9
    Частота кадров : 25,000 кадров/сек
    Стандарт вещания : Component
    Цветовое пространство : YUV
    Субдискретизация насыщенности : 4:2:0
    Битовая глубина : 8 бит
    Тип развёртки : Чересстрочная
    Порядок развёртки : Верхнее поле первое
    Бит/(Пиксели*Кадры) : 0.249
    Размер потока : 7,92 Гбайт (94%)
    Основные цвета : BT.709
    Характеристики трансфера : BT.709
    Коэффициенты матрицы : BT.709
    Аудио
    Идентификатор : 2142 (0x85E)
    Идентификатор меню : 21004 (0x520C)
    Формат : MPEG Audio
    Версия формата : Version 1
    Профиль формата : Layer 2
    Идентификатор кодека : 4
    Продолжительность : 1 ч. 27 м.
    Вид битрейта : Постоянный
    Битрейт : 192 Кбит/сек
    Каналы : 2 канала
    Частота : 48,0 КГц
    Метод сжатия : С потерями
    Задержка видео : 62 мс.
    Размер потока : 120 Мбайт (1%)
    Язык : Russian

    Скриншоты

    Скачать .torrent

    Скачать торрент-файл бесплатно и на максимальной скорости!

    Как скачивать? · Что такое торрент? · Рейтинг и ограничения

    !ВНИМАНИЕ!
    Сайт не распространяет и не хранит электронные версии произведений, а занимается лишь лишь предоставлением доступа к создаваемому пользователями каталогу ссылок на торрент-файлы, которые содержат только списки хеш-сумм, убедительная просьба с жалобами обращаться напрямую к пользователю. Файлы для обмена на трекере предоставлены пользователями сайта, и администрация не несёт ответственности за их содержание. Просьба не заливать файлы, защищенные авторскими правами, а также файлы нелегального содержания!

    [Профиль] [ЛС]
    Показать сообщения:    
    Ответить на тему

    Текущее время: Сегодня, в 05:59

    Часовой пояс: GMT + 2



    Вы не можете начинать темы
    Вы не можете отвечать на сообщения
    Вы не можете редактировать свои сообщения
    Вы не можете удалять свои сообщения
    Вы не можете голосовать в опросах
    Вы не можете прикреплять файлы к сообщениям
    Вы не можете скачивать файлы