BitTorrentTracker PerecTracker.org
BitTorrentTracker PerecTracker.org
    
Регистрация  ·  Вход
 
 · 
Забыли пароль?

  • На том свете / Приход царства / Kingdom Come (Дуг Макгенри / Doug McHenry) [2001, США, комедия, мелодрама, HDTVRip] MVO (1 канал)

    Ответить на тему
     
    Автор Сообщение

    Columb

    Создавать темы 15-Авг-2014 15:54

           

    [Цитировать]

    На том свете / Приход царства / Kingdom Come
    Страна: США
    Жанр: комедия, мелодрама
    Год выпуска: 2001
    Продолжительность: 01:27:41
    Перевод: Профессиональный (многоголосый закадровый) 1 канал
    Cубтитры: нет
    Оригинальная аудиодорожка: нет
    Режиссер: Дуг Макгенри / Doug McHenry
    В ролях: LL Кул Джей, Джада Пинкетт Смит, Вивика А. Фокс, Лоретта Дивайн, Энтони Андерсон, Тони Брэкстон, Седрик «Развлекатель», Дариус МакКрэри, Вупи Голдберг, Ричард Гант
    Описание: Искрометная афро-американская комедия, как обычно, понятная только самим афро-американцам. Речь идет о трех днях из жизни семьи Слокамбов, которая собирается, чтобы урегулировать семейные проблемы, возникшие в результате гибели главы этого небольшого клана - грозного «короля» Вудроу «Бада» Слокамба. Дело происходит жарким летом, и в то время, как изображаемый город тонет в потоках зноя, изображаемая семейка по потери пульса занимается выяснением отношений. Все это выглядит и смешно, и трагично, но все-таки смешного больше - потому что понимаешь: все конфликты этих нервных, но симпатичных негров не могут закончиться плохо. Более того: смерть их патриарха оказывается всего лишь средством для того, чтобы семья, наконец, почувствовала себя единым целым. Достигается это нелегко: через бесконечные разборки над гробом преставившегося главы семейства, через споры о том, сколько стоит заплатить за похороны, подонок ли начальник похоронной компании и так далее.
    Вупи Голдберг исполняет роль матери этого вновьобразованного осиного гнезда, знаменитый рэпер ЛЛ Кул Джей - ее старшего сына, который «в контрах» со своей женой. Вообще, для «черного» кино состав получился весьма звездным - одно привлечение Тони Брэкстон чего стоит.
    Доп. информация: Рип с канала Первый HD. Из видеоряда удален логотип канала, остались периодические вставки с названием фильма. HDTV имеет большее наполнение кадра, чем DVD
    Сэмпл: http://multi-up.com/976623
    Качество видео: HDTVRip
    Формат видео: AVI
    Видео: MPEG4, XviD, 720x400 (16/9), 25.000 fps, 2 033 Kbps (0.282 bit/pixel)
    Аудио: AC-3, 48.0 KHz, 2 ch, 192 Kbps, CBR

    MediaInfo

    Общее
    Полное имя : K:\На том свете.avi
    Формат : AVI
    Формат/Информация : Audio Video Interleave
    Размер файла : 1,37 Гбайт
    Продолжительность : 1 ч. 27 м.
    Общий поток : 2235 Кбит/сек
    Название фильма : На том свете / Приход царства / Kingdom Come (2001)
    Программа кодирования : VirtualDubMod 1.5.10.2 (build 2540/release)
    Библиотека кодирования : VirtualDubMod build 2540/release
    Правообладатель : miha2154
    Видео
    Идентификатор : 0
    Формат : MPEG-4 Visual
    Профиль формата : Advanced Simple@L5
    Параметр BVOP формата : 2
    Параметр QPel формата : Нет
    Параметр GMC формата : Без точки перехода
    Параметр матрицы формата : Default (MPEG)
    Идентификатор кодека : XVID
    Идентификатор кодека/Подсказка : XviD
    Продолжительность : 1 ч. 27 м.
    Битрейт : 2033 Кбит/сек
    Ширина : 720 пикселей
    Высота : 400 пикселей
    Соотношение сторон : 16:9
    Частота кадров : 25,000 кадров/сек
    Цветовое пространство : YUV
    Субдискретизация насыщенности : 4:2:0
    Битовая глубина : 8 бит
    Тип развёртки : Прогрессивная
    Метод сжатия : С потерями
    Бит/(Пиксели*Кадры) : 0.282
    Размер потока : 1,25 Гбайт (91%)
    Библиотека кодирования : XviD 1.1.0 (UTC 2005-11-22)
    Аудио
    Идентификатор : 1
    Формат : AC-3
    Формат/Информация : Audio Coding 3
    Расширение режима : CM (complete main)
    Параметр Endianness формата : Big
    Идентификатор кодека : 2000
    Продолжительность : 1 ч. 27 м.
    Вид битрейта : Постоянный
    Битрейт : 192 Кбит/сек
    Каналы : 2 канала
    Расположение каналов : Front: L R
    Частота : 48,0 КГц
    Битовая глубина : 16 бит
    Метод сжатия : С потерями
    Размер потока : 120 Мбайт (9%)
    Выравнивание : Разделение по промежуткам
    Продолжительность промежутка : 40 мс. (1,00 видеокадр)
    Время предзагрузки промежутка : 500 мс.
    Заголовок : Профессиональный (многоголосый закадровый) 1 канал

    Скриншоты

    Скачать .torrent

    Скачать торрент-файл бесплатно и на максимальной скорости!

    Как скачивать? · Что такое торрент? · Рейтинг и ограничения

    !ВНИМАНИЕ!
    Сайт не распространяет и не хранит электронные версии произведений, а занимается лишь лишь предоставлением доступа к создаваемому пользователями каталогу ссылок на торрент-файлы, которые содержат только списки хеш-сумм, убедительная просьба с жалобами обращаться напрямую к пользователю. Файлы для обмена на трекере предоставлены пользователями сайта, и администрация не несёт ответственности за их содержание. Просьба не заливать файлы, защищенные авторскими правами, а также файлы нелегального содержания!

    [Профиль] [ЛС]
    Показать сообщения:    
    Ответить на тему

    Текущее время: Сегодня, в 08:26

    Часовой пояс: GMT + 2



    Вы не можете начинать темы
    Вы не можете отвечать на сообщения
    Вы не можете редактировать свои сообщения
    Вы не можете удалять свои сообщения
    Вы не можете голосовать в опросах
    Вы не можете прикреплять файлы к сообщениям
    Вы не можете скачивать файлы