BitTorrentTracker PerecTracker.org
BitTorrentTracker PerecTracker.org
    
Регистрация  ·  Вход
 
 · 
Забыли пароль?

  • Дом большой мамочки / Big Momma's House (Раджа Госнелл / Raja Gosnell) [2000, США, Германия, боевик, комедия, криминал, BDRip] MVO (ТК "Россия") + AVO (Гранкин)

    Ответить на тему
     
    Автор Сообщение

    Columb

    Создавать темы 15-Авг-2014 15:37

           

    [Цитировать]

    Дом большой мамочки / Big Momma's House
    Страна: США, Германия
    Жанр: боевик, комедия, криминал
    Год выпуска: 2000
    Продолжительность: 01:38:58
    Перевод: Профессиональный (многоголосый закадровый) ТК "Россия"
    Перевод 2: Авторский (одноголосый закадровый) Гранкин
    Cубтитры: нет
    Режиссер: Раджа Госнелл / Raja Gosnell
    В ролях: Мартин Лоуренс, Ниа Лонг, Пол Джаматти, Яша Вашингтон, Терренс Ховард, Энтони Андерсон, Элла Митчел, Карл Райт, Филлис Эпплгейт, Старлетта Дюпуа
    Описание: Агент ФБР Малькольм Тернер, мастер перевоплощений. Он умен, обаятелен и не существует такого задания, с которым он бы не справился. Остановить череду жестоких преступлений? Нет проблем.
    Малкольм входит в роль пожилого азиата для расследования преступлений. Последнее назначение Малькома приводит его в маленький южный городок, где он должен поймать матерого грабителя банков, недавно сбежавшего из тюрьмы.
    Малькольм устанавливает слежку за домом южной, властной женщины, известной как «Большая мамочка». По оперативным данным ее должна навестить бывшая подружка преступника Шерри со своим сыном. Очень простой план, но есть одна Большая проблема: Большая мамочка неожиданно покидает город…
    Доп. информация:
    Дорожка телеканала "Россия" с моей VHS.
    За синхронизацию к BDrip Спасибо JUSTKANT
    В дорожке ТК "Россия" идет постоянный шум, по возможности его уменьшил, но он все равно слышен. Перед скачиванием фильма прослушайте семпл.
    Авторский Гранкина взят с кинозала из раздачи igorella87
    Сэмпл: http://www.sendspace.com/file/byrqk3
    Качество видео: BDRip
    Формат видео: AVI
    Видео: 704x384 (1.83:1), 23.976 fps, XviD build 57 ~1710 kbps avg, 0.26 bit/pixel
    Аудио: 48 kHz, AC3 Dolby Digital, 2/0 (L,R) ch, ~192.00 kbps avg
    Аудио 2: 48 kHz, AC3 Dolby Digital, 2/0 (L,R) ch, ~192.00 kbps avg

    MediaInfo

    General
    Complete name : N:\Dom bolshoj mamochki (2000).avi
    Format : AVI
    Format/Info : Audio Video Interleave
    File size : 1.46 GiB
    Duration : 1h 38mn
    Overall bit rate : 2 109 Kbps
    Movie name : Big Momma's House (2000) BDRip
    Director : DaniLch
    Genre : Action/Comedy/Crime
    Writing application : VirtualDubMod 1.5.10.2 (build 2540/release)
    Writing library : VirtualDubMod build 2540/release
    Comment : R.G. HQCLUB
    Video
    ID : 0
    Format : MPEG-4 Visual
    Format profile : Advanced Simple@L5
    Format settings, BVOP : 1
    Format settings, QPel : No
    Format settings, GMC : No warppoints
    Format settings, Matrix : Custom
    Codec ID : XVID
    Codec ID/Hint : XviD
    Duration : 1h 38mn
    Bit rate : 1 711 Kbps
    Width : 704 pixels
    Height : 384 pixels
    Display aspect ratio : 1.85:1
    Frame rate : 23.976 fps
    Color space : YUV
    Chroma subsampling : 4:2:0
    Bit depth : 8 bits
    Scan type : Progressive
    Compression mode : Lossy
    Bits/(Pixel*Frame) : 0.264
    Stream size : 1.18 GiB (81%)
    Writing library : XviD 57
    Audio #1
    ID : 1
    Format : AC-3
    Format/Info : Audio Coding 3
    Mode extension : CM (complete main)
    Format settings, Endianness : Big
    Codec ID : 2000
    Duration : 1h 38mn
    Bit rate mode : Constant
    Bit rate : 192 Kbps
    Channel count : 2 channels
    Channel positions : Front: L R
    Sampling rate : 48.0 KHz
    Bit depth : 16 bits
    Compression mode : Lossy
    Stream size : 136 MiB (9%)
    Alignment : Split accross interleaves
    Interleave, duration : 42 ms (1.00 video frame)
    Interleave, preload duration : 500 ms
    Audio #2
    ID : 2
    Format : AC-3
    Format/Info : Audio Coding 3
    Mode extension : CM (complete main)
    Format settings, Endianness : Big
    Codec ID : 2000
    Duration : 1h 38mn
    Bit rate mode : Constant
    Bit rate : 192 Kbps
    Channel count : 2 channels
    Channel positions : Front: L R
    Sampling rate : 48.0 KHz
    Bit depth : 16 bits
    Compression mode : Lossy
    Stream size : 136 MiB (9%)
    Alignment : Split accross interleaves
    Interleave, duration : 42 ms (1.00 video frame)
    Interleave, preload duration : 500 ms

    Скриншот c названием фильма

    Скриншоты

    Скачать .torrent

    Скачать торрент-файл бесплатно и на максимальной скорости!

    Как скачивать? · Что такое торрент? · Рейтинг и ограничения

    !ВНИМАНИЕ!
    Сайт не распространяет и не хранит электронные версии произведений, а занимается лишь лишь предоставлением доступа к создаваемому пользователями каталогу ссылок на торрент-файлы, которые содержат только списки хеш-сумм, убедительная просьба с жалобами обращаться напрямую к пользователю. Файлы для обмена на трекере предоставлены пользователями сайта, и администрация не несёт ответственности за их содержание. Просьба не заливать файлы, защищенные авторскими правами, а также файлы нелегального содержания!

    [Профиль] [ЛС]
    Показать сообщения:    
    Ответить на тему

    Текущее время: Сегодня, в 12:31

    Часовой пояс: GMT + 2



    Вы не можете начинать темы
    Вы не можете отвечать на сообщения
    Вы не можете редактировать свои сообщения
    Вы не можете удалять свои сообщения
    Вы не можете голосовать в опросах
    Вы не можете прикреплять файлы к сообщениям
    Вы не можете скачивать файлы