BitTorrentTracker PerecTracker.org
BitTorrentTracker PerecTracker.org
    
Регистрация  ·  Вход
 
 · 
Забыли пароль?

  • Ромео должен умереть / Romeo Must Die (Анджей Бартковяк / Andrzej Bartkowiak) [2000, США, боевик, криминал, BDRip-AVC] DUB + 2xMVO(d2lab, HTB+) + 2xAVO(Гаврилов, Сонькин) + Sub Rus, Eng + Org Eng

    Ответить на тему
     
    Автор Сообщение

    Columb

    Создавать темы 15-Авг-2014 15:33

           

    [Цитировать]

    Ромео должен умереть / Romeo Must Die--Страна: США
    Жанр: боевик, криминал
    Год выпуска: 2000
    Продолжительность: 01:55:04-Перевод 1: Профессиональный (дублированный) мост-видео
    Перевод 2: Профессиональный (многоголосый закадровый) НТВ+
    Перевод 3: Профессиональный (многоголосый закадровый) d2lab
    Перевод 4: Авторский (одноголосый закадровый) А. Гаврилов
    Перевод 5: Авторский (одноголосый закадровый) В. Сонькин
    Оригинальная аудиодорожка: английский
    Cубтитры: русские, английские-Режиссер: Анджей Бартковяк / Andrzej Bartkowiak
    Сценарий: Митчел Кэпнер, Эрик Бернт, Джон Джарелл
    Продюсер: Уоррен Карр, Дэн Краччиоло, Митчел Кэпнер, ...
    Оператор: Глен МакФерсон
    Композитор: Стэнли Кларк
    Художник: Майкл С. Болтон, Джеймс Стюарт, Сандра Дж. Блэкки, ...
    Монтаж: Дерек Бречин
    В ролях:
    Джет Ли, Али́я, Расселл Вонг, Айзэйя Вашингтон, DMX, Делрой Линдо, Д.Б. Вудсайд, Генри О, Джонкит Ли, Эдоардо Баллерини-Описание: Между китайской мафией и бандой «чёрных» ведется война за передел участков в Окленде. Но однажды убивают младшего сына главы китайской мафии. Узнав об этом, старший брат Хан (Джет Ли), сбежав из Гонконгской тюрьмы, решает найти убийцу. По приезде Хан встречает обворожительную Триш О’Дей (Алия), с которой вместе решаются остановить кровавую войну за деление участков в Окленде и найти убийцу брата.-Также к фильму был выпущен саундтрек под названием"Romeo Must Die: The Album", выпущенный 28 марта 2000 года на Blackground Records, состоит из хип-хоп/R&B песен. Саундтрек разошёлся тиражом 1,5 миллионов копий в США. Был спродюсирован Aaliyah, Тимбалэндом, Бэрри Хенкерсоном, и Джомом Хэнкерсоном, был записан в 1999-2000гг. Записан с участием Aaliyah, а также с Chanté Moore, группой Destiny’s Child, Ginuwine, Джоем, Timbaland & Magoo и другими. Саундтрек содержит три сингла, поп-хит номер один Try Again, исполненный Aaliyah, дуэт Aaliyah и DMX "Come Back in One Piece" и песня Timbaland & Magoo под названием "We At It Again", который был записан совместно с братом Тимбалэнда, Себатьяном, который и помог обратить внимание аудитории на песню.-Награды: Премия канала «MTV», 2001
    Номинации (3): Лучшая драка, Женский прорыв года (Алия), Лучшая женская роль (Алия)-бюджет$25 000 000 маркетинг $20 000 000
    сборы в США $55 973 336
    сборы в мире+ $35 063 424 = $91 036 760-Ради этого фильма Джет Ли отказался от роли в фильме «Крадущийся тигр,затаившийся дракон». Вместо Джета на роль взяли Чоу Юн Фата.--Качество видео: BDRip-AVC источник Blu-ray Disc 1080p AVC ~30 MBit/sROMEO_MUST_DIE_2000_1080p_AVC_Shadowman
    Формат видео: MKV
    Видео: AVC (x264) 1136x472@23.976 fps ~2789 kBit/s
    Аудио 1: Дубляж AC3 384 kBit/s 48 kHz 5.1 DD
    Аудио 2: English AC3 448 kBit/s 48 kHz 5.1 DD
    ______________________________________________Отдельно______________________________________________
    Аудио 3: MVO d2lab AC3 448 kBit/s 48 kHz 5.1 DD
    Аудио 4: MVO HTB+ AC3 192 kBit/s 48 kHz 2.0 DD
    Аудио 5: Гаврилов AC3 448 kBit/s 48 kHz 5.1 DD
    Аудио 6: Сонькин AC3 192 kBit/s 48 kHz 2.0 DD-

    MediaInfo

    General
    Unique ID : 173031295142607633901847983389686831815 (0x822C9D81E259E79BB2980F25394B1AC7)
    Complete name : C:\Video\Romeo Must Die.mkv
    Format : Matroska
    Format version : Version 2
    File size : 2.91 GiB
    Duration : 1h 55mn
    Overall bit rate : 3 620 Kbps
    Encoded date : UTC 2012-08-17 17:24:26
    Writing application : mkvmerge v5.6.0 ('Kenya Kane') built on May 27 2012 16:44:04
    Writing library : libebml v1.2.3 + libmatroska v1.3.0
    Video
    ID : 1
    Format : AVC
    Format/Info : Advanced Video Codec
    Format profile : High@L4.1
    Format settings, CABAC : Yes
    Format settings, ReFrames : 15 frames
    Codec ID : V_MPEG4/ISO/AVC
    Duration : 1h 55mn
    Bit rate : 2 789 Kbps
    Width : 1 136 pixels
    Height : 472 pixels
    Display aspect ratio : 2.40:1
    Frame rate : 23.976 fps
    Color space : YUV
    Chroma subsampling : 4:2:0
    Bit depth : 8 bits
    Scan type : Progressive
    Bits/(Pixel*Frame) : 0.217
    Stream size : 2.18 GiB (75%)
    Title : AVC (x264) 1136x472@23.976 fps ~2789 kBit/s 2-pass High 4.1
    Writing library : x264 core 122 r2184bm 5c85e0a
    Encoding settings : cabac=1 / ref=15 / deblock=1:-2:-2 / analyse=0x3:0x133 / me=umh / subme=10 / psy=1 / psy_rd=1.00:0.05 / mixed_ref=1 / me_range=48 / chroma_me=1 / trellis=2 / 8x8dct=1 / cqm=0 / deadzone=21,11 / fast_pskip=0 / chroma_qp_offset=-3 / threads=6 / sliced_threads=0 / nr=0 / decimate=0 / interlaced=0 / bluray_compat=0 / constrained_intra=0 / bframes=12 / b_pyramid=2 / b_adapt=2 / b_bias=0 / direct=3 / weightb=1 / open_gop=0 / weightp=2 / keyint=250 / keyint_min=23 / scenecut=40 / intra_refresh=0 / rc=2pass / mbtree=0 / bitrate=2789 / ratetol=1.0 / qcomp=0.90 / qpmin=0 / qpmax=69 / qpstep=4 / cplxblur=20.0 / qblur=0.5 / ip_ratio=1.40 / pb_ratio=1.45 / aq=2:1.15
    Language : English
    Default : Yes
    Forced : No
    Audio #1
    ID : 2
    Format : AC-3
    Format/Info : Audio Coding 3
    Mode extension : CM (complete main)
    Format settings, Endianness : Big
    Codec ID : A_AC3
    Duration : 1h 55mn
    Bit rate mode : Constant
    Bit rate : 384 Kbps
    Channel(s) : 6 channels
    Channel positions : Front: L C R, Side: L R, LFE
    Sampling rate : 48.0 KHz
    Bit depth : 16 bits
    Compression mode : Lossy
    Stream size : 316 MiB (11%)
    Title : DUB Мост-видео AC3 384 kBit/s 48 kHz 5.1 DD
    Language : Russian
    Default : Yes
    Forced : No
    Audio #2
    ID : 3
    Format : AC-3
    Format/Info : Audio Coding 3
    Mode extension : CM (complete main)
    Format settings, Endianness : Big
    Codec ID : A_AC3
    Duration : 1h 55mn
    Bit rate mode : Constant
    Bit rate : 448 Kbps
    Channel(s) : 6 channels
    Channel positions : Front: L C R, Side: L R, LFE
    Sampling rate : 48.0 KHz
    Bit depth : 16 bits
    Compression mode : Lossy
    Stream size : 369 MiB (12%)
    Title : English AC3 448 kBit/s 48 kHz 5.1 DD
    Language : English
    Default : No
    Forced : No
    Text #1
    ID : 4
    Format : UTF-8
    Codec ID : S_TEXT/UTF8
    Codec ID/Info : UTF-8 Plain Text
    Language : Russian
    Default : No
    Forced : No
    Text #2
    ID : 5
    Format : UTF-8
    Codec ID : S_TEXT/UTF8
    Codec ID/Info : UTF-8 Plain Text
    Language : English
    Default : No
    Forced : No

    Скриншот c названием фильма

    Скриншоты

    Скачать .torrent

    Скачать торрент-файл бесплатно и на максимальной скорости!

    Как скачивать? · Что такое торрент? · Рейтинг и ограничения

    !ВНИМАНИЕ!
    Сайт не распространяет и не хранит электронные версии произведений, а занимается лишь лишь предоставлением доступа к создаваемому пользователями каталогу ссылок на торрент-файлы, которые содержат только списки хеш-сумм, убедительная просьба с жалобами обращаться напрямую к пользователю. Файлы для обмена на трекере предоставлены пользователями сайта, и администрация не несёт ответственности за их содержание. Просьба не заливать файлы, защищенные авторскими правами, а также файлы нелегального содержания!

    [Профиль] [ЛС]
    Показать сообщения:    
    Ответить на тему

    Текущее время: Сегодня, в 16:03

    Часовой пояс: GMT + 2



    Вы не можете начинать темы
    Вы не можете отвечать на сообщения
    Вы не можете редактировать свои сообщения
    Вы не можете удалять свои сообщения
    Вы не можете голосовать в опросах
    Вы не можете прикреплять файлы к сообщениям
    Вы не можете скачивать файлы