BitTorrentTracker PerecTracker.org
BitTorrentTracker PerecTracker.org
    
Регистрация  ·  Вход
 
 · 
Забыли пароль?

  • Бруклин 9-9 / Brooklyn Nine-Nine / Сезон: 1 / Серии: 1-22 из 22 (Фил Лорд, Крис Миллер, Джейсон Энслер) [2013, комедия, WEB-DLRip] MVO (NewStudio)

    Ответить на тему
     
    Автор Сообщение

    Columb

    Создавать темы 15-Авг-2014 13:34

           

    [Цитировать]

    Бруклин 9-9 / Brooklyn Nine-Nine
    Год выпуска: 2013
    Страна: США
    Жанр: комедия
    Продолжительность: ~00:23:00
    Перевод: Профессиональный (многоголосый закадровый) - NewStudio

    Автор перевода: Opel

    Режиссёр: Фил Лорд, Крис Миллер, Джейсон Энслер
    В ролях: Энди Сэмберг, Андре Брогер, Терри Крюс, Мелисса Фумеро, Джо Ло Трульо, Стефани Беатриз и др.
    Описание: История о том, что происходит, когда у детектива, не воспринимающего ничего серьезно, появляется новый руководитель, который хочет, чтобы он рос и с уважением относился к своей должности.СэмплКачество: WEB-DLRip
    Формат: AVI
    Видео: XviD, 720x400 (16:9), 23.976 fps, ~1552 kbps, 0.225 bit/pixel
    Аудио #1 Rus: MP3, 48 KHz, 2 ch, 128 kbps — многоголосый закадровый
    Аудио #2 Eng: MP3, 48 KHz, 2 ch, 128 kbps — оригинал
    Субтитры: отсутствуют

    Список серий


    01. Pilot
    02. The Tagger
    03. The Slump
    04. M.E. Time
    05. The Vulture
    06. Halloween
    07. 48 Hours
    08. Old School
    09. Sal's Pizza
    10. Thanksgiving
    11. Christmas
    12. Pontiac Bandit
    13. The Bet / Пари
    14. The Ebony Falcon / Черный Сокол
    15. Operation: Broken Feather
    16.The Party
    17. Full Boyle
    18. The Apartment
    19. Tactical Village / Тактические учения
    20. Fancy Brugdom
    21. Unsolvable
    22. Charges and Specs / Обвинения

    MediaInfo

    Общее
    Полное имя : D:\Бруклин 9-9 (Сезон 1) Brooklyn Nine-Nine (2013) WEB-DLRip - NewStudio\Brooklyn.Nine.Nine.S01E01.WEBDLRip.NewStudio.TV.avi
    Формат : AVI
    Формат/Информация : Audio Video Interleave
    Размер файла : 300 Мбайт
    Продолжительность : 23 м.
    Общий поток : 1822 Кбит/сек
    Программа кодирования : VirtualDubMod 1.5.10.2 (build 2540/release)
    Библиотека кодирования : VirtualDubMod build 2540/release
    Видео
    Идентификатор : 0
    Формат : MPEG-4 Visual
    Профиль формата : Advanced Simple@L5
    Параметр BVOP формата : 2
    Параметр QPel формата : Нет
    Параметр GMC формата : Без точки перехода
    Параметр матрицы формата : Default (MPEG)
    Идентификатор кодека : XVID
    Идентификатор кодека/Подсказка : XviD
    Продолжительность : 23 м.
    Битрейт : 1552 Кбит/сек
    Ширина : 720 пикселей
    Высота : 400 пикселей
    Соотношение сторон : 16:9
    Частота кадров : 23,976 кадра/сек
    Цветовое пространство : YUV
    Субдискретизация насыщенности : 4:2:0
    Битовая глубина : 8 бит
    Тип развёртки : Прогрессивная
    Метод сжатия : С потерями
    Бит/(Пиксели*Кадры) : 0.225
    Размер потока : 256 Мбайт (85%)
    Библиотека кодирования : XviD 64
    Аудио #1
    Идентификатор : 1
    Формат : MPEG Audio
    Версия формата : Version 1
    Профиль формата : Layer 3
    Режим : Joint stereo
    Расширение режима : MS Stereo
    Идентификатор кодека : 55
    Идентификатор кодека/Подсказка : MP3
    Продолжительность : 23 м.
    Вид битрейта : Постоянный
    Битрейт : 128 Кбит/сек
    Каналы : 2 канала
    Частота : 48,0 КГц
    Метод сжатия : С потерями
    Размер потока : 21,1 Мбайт (7%)
    Выравнивание : Соединение по промежуткам
    Продолжительность промежутка : 42 мс. (1,00 видеокадр)
    Время предзагрузки промежутка : 504 мс.
    Аудио #2
    Идентификатор : 2
    Формат : MPEG Audio
    Версия формата : Version 1
    Профиль формата : Layer 3
    Режим : Joint stereo
    Расширение режима : MS Stereo
    Идентификатор кодека : 55
    Идентификатор кодека/Подсказка : MP3
    Продолжительность : 23 м.
    Вид битрейта : Постоянный
    Битрейт : 128 Кбит/сек
    Каналы : 2 канала
    Частота : 48,0 КГц
    Метод сжатия : С потерями
    Размер потока : 21,1 Мбайт (7%)
    Выравнивание : Соединение по промежуткам
    Продолжительность промежутка : 42 мс. (1,00 видеокадр)
    Время предзагрузки промежутка : 504 мс.
    Библиотека кодирования : LAME3.99r
    Настройки программы : -m j -V 4 -q 2 -lowpass 17 -b 128

    Скриншоты

    Скачать .torrent

    Скачать торрент-файл бесплатно и на максимальной скорости!

    Как скачивать? · Что такое торрент? · Рейтинг и ограничения

    !ВНИМАНИЕ!
    Сайт не распространяет и не хранит электронные версии произведений, а занимается лишь лишь предоставлением доступа к создаваемому пользователями каталогу ссылок на торрент-файлы, которые содержат только списки хеш-сумм, убедительная просьба с жалобами обращаться напрямую к пользователю. Файлы для обмена на трекере предоставлены пользователями сайта, и администрация не несёт ответственности за их содержание. Просьба не заливать файлы, защищенные авторскими правами, а также файлы нелегального содержания!

    [Профиль] [ЛС]
    Показать сообщения:    
    Ответить на тему

    Текущее время: Сегодня, в 20:46

    Часовой пояс: GMT + 2



    Вы не можете начинать темы
    Вы не можете отвечать на сообщения
    Вы не можете редактировать свои сообщения
    Вы не можете удалять свои сообщения
    Вы не можете голосовать в опросах
    Вы не можете прикреплять файлы к сообщениям
    Вы не можете скачивать файлы