BitTorrentTracker PerecTracker.org
BitTorrentTracker PerecTracker.org
    
Регистрация  ·  Вход
 
 · 
Забыли пароль?

  • Будущее / The Future (Миранда Джулай / Miranda July) [2011, Германия, США, драма, комедия, DVDRip] MVO

    Ответить на тему
     
    Автор Сообщение

    Columb

    Создавать темы 15-Авг-2014 13:30

           

    [Цитировать]

    БудущееThe Future-Страна: Германия, США
    Жанр: драма, комедия
    Год выпуска: 2011
    Продолжительность: 01:26:53-Перевод: Профессиональный (многоголосый, закадровый) [лицензия]
    Субтитры: нет
    Режиссер: Миранда Джулай / Miranda July
    В ролях: Хамиш Линклэйтер, Миранда Джулай, Дэвид Уоршофски, Изабелла Акрес, Джо Паттерлик, Анджела Тримбур, Мэри Пассери, Элла, Кэтлин Гати, Клемент Сейнт-Джордж, Тонита Кастро, Д.А. Сандовал-Описание: Когда пара решает взять бездомного кота, их жизненная перспектива меняется, буквально искажая пространство и время и проверяя их веру в себя и друг друга на прочность.-


    MPAA: R - Лицам до 17 лет обязательно присутствие взрослого-

    Доп. Информация

    Сценарий: Миранда Джулай / Miranda July
    Продюсер: Джина Вонг / Gina Kwon, Герхард Майкснер / Gerhard Meixner, Роман Пол / Roman Paul, Аарон Бекум / Aaron Beckum, Крис Стинсон / Chris Stinson
    Оператор: Николай Фон Грэйвниц / Nikolai von Graevenitz
    Композитор: Джон Брайон / Jon Brion
    Бюджет: $1 000 000
    Сборы в США: $568 662
    Сборы в России: $18 593
    Мировая премьера: 21 января 2011
    Релиз на DVD: 18 февраля 2013, «Новый Диск»
    -Качество: DVDRip (Исходник DVD5 R5)
    Контейнер: AVI
    Видео: XviD, 720x384 (1.875), 2038 kbps, 25 fps, 0,295 bpp
    Аудио: AC3 / 2.0 / 48 kHz / 192 kbps / 16 bit-

    Media Info

    General
    Complete name : F:\Budushhee.2011.P_DVDRip.avi
    Format : AVI
    Format/Info : Audio Video Interleave
    File size : 1.36 GiB
    Duration : 1h 26mn
    Overall bit rate : 2 240 Kbps
    Movie name : Budushhee.2011.P.DVDRip
    Writing application : VirtualDubMod 1.5.10.3 | www.virtualdub-fr.org || (build 2550/release)
    Original source form/Name : Movie
    Video
    ID : 0
    Format : MPEG-4 Visual
    Format profile : Advanced Simple@L5
    Format settings, BVOP : No
    Format settings, QPel : No
    Format settings, GMC : No warppoints
    Format settings, Matrix : Custom
    Codec ID : XVID
    Codec ID/Hint : XviD
    Duration : 1h 26mn
    Bit rate : 2 039 Kbps
    Width : 720 pixels
    Height : 384 pixels
    Display aspect ratio : 1.875
    Frame rate : 25.000 fps
    Color space : YUV
    Chroma subsampling : 4:2:0
    Bit depth : 8 bits
    Scan type : Progressive
    Compression mode : Lossy
    Bits/(Pixel*Frame) : 0.295
    Stream size : 1.24 GiB (91%)
    Writing library : XviD 1.2.1 (UTC 2008-12-04)
    Audio
    ID : 1
    Format : AC-3
    Format/Info : Audio Coding 3
    Mode extension : CM (complete main)
    Codec ID : 2000
    Duration : 1h 26mn
    Bit rate mode : Constant
    Bit rate : 192 Kbps
    Channel(s) : 2 channels
    Channel positions : Front: L R
    Sampling rate : 48.0 KHz
    Bit depth : 16 bits
    Compression mode : Lossy
    Stream size : 119 MiB (9%)
    Alignment : Split accross interleaves
    Interleave, duration : 40 ms (1.00 video frame)
    Interleave, preload duration : 500 ms

    Скриншот с названием фильма

    Скриншоты

    Скачать .torrent

    Скачать торрент-файл бесплатно и на максимальной скорости!

    Как скачивать? · Что такое торрент? · Рейтинг и ограничения

    !ВНИМАНИЕ!
    Сайт не распространяет и не хранит электронные версии произведений, а занимается лишь лишь предоставлением доступа к создаваемому пользователями каталогу ссылок на торрент-файлы, которые содержат только списки хеш-сумм, убедительная просьба с жалобами обращаться напрямую к пользователю. Файлы для обмена на трекере предоставлены пользователями сайта, и администрация не несёт ответственности за их содержание. Просьба не заливать файлы, защищенные авторскими правами, а также файлы нелегального содержания!

    [Профиль] [ЛС]
    Показать сообщения:    
    Ответить на тему

    Текущее время: Сегодня, в 22:28

    Часовой пояс: GMT + 2



    Вы не можете начинать темы
    Вы не можете отвечать на сообщения
    Вы не можете редактировать свои сообщения
    Вы не можете удалять свои сообщения
    Вы не можете голосовать в опросах
    Вы не можете прикреплять файлы к сообщениям
    Вы не можете скачивать файлы