BitTorrentTracker PerecTracker.org
BitTorrentTracker PerecTracker.org
    
Регистрация  ·  Вход
 
 · 
Забыли пароль?

  • Неуловимый Люк / Lucky Luke (Джеймс Хат / James Huth) [2009, комедия, приключения, вестерн, HDRip] Dub (R5)

    Ответить на тему
     
    Автор Сообщение

    Columb

    Создавать темы 15-Авг-2014 13:23

           

    [Цитировать]

    Неуловимый Люк / Lucky LukeГод выпуска: 2009
    Страна: Франция, Аргентина
    Жанр: комедия, приключения, вестерн
    Продолжительность: 01:43:15
    Перевод: Профессиональный (полное дублирование)
    Русские субтитры: нет
    Режиссер: Джеймс Хат / James Huth
    Сценарий: Джеймс Хат / James Huth, Соня Шиллито / Sonja Shillito, Рене Госинни / René Goscinny, Моррис / Morris
    Продюсер: Саид Бен Саид / Saïd Ben Saïd, Ив Мармион / Yves Marmion, Соня Шиллито / Sonja Shillito, Хосе Луис Алмада / José Luis Almada, Оскар Крамер / Óscar Kramer
    Оператор: Стефан Ле Парк / Stéphane Le Parc
    Композитор: Бруно Куле / Bruno Coulais
    В ролях: Жан Дюжарден (Lucky Luke), Микаэль Юн (Billy The Kid), Сильви Тестю (Calamity Jane), Даниэль Прево (Pat Poker), Александра Лэми (Belle), Мельвиль Пупо (Jesse James), Жан-Франсуа Бальме (Le gouverneur), Андре Умански (President), Габриэль Коррадо (Luke's Father), Помпейо Одивер (Undertacker), Атилио Поззобон (Barman), Alberto Laiseca (Dick Digger)
    Дублёры: Михаил Галустян (Billy The Kid), Андрей Фединчик, Владимир Остапчук, Андрей Саминин, Ольга Радчук, Екатерина Брайковская-Бюджет: €27 000 000
    Сборы в России: $175 467
    Сборы в мире: $15 919 358
    Мировая премьера: 21 октября 2009
    Релиз на DVD: 6 октября 2011, «New Dream media»-Описание: Счастливчик Люк возвращается в свой родной город Дэйзи Таун, где в то время хозяйничают злодеи Пат Покер и Билли Зи Ки. Там он встретит свою любовь, певицу из местной таверны по имени Белль, а также столкнётся со своими давними врагами Кэлэмити Джэйн и Джесси Джеймсом.-Рейтинг
    : 5.660 (424)
    imdb.com: 4.50 (1 085)-Качество: HDRip
    Формат: AVI
    Видео: 688x288 (2.39:1), 24.000 fps, XviD build 50 ~877 kbps avg, 0.18 bit/pixel
    Аудио: 48 kHz, MPEG Layer 3, 2 ch, ~128.00 kbps avg-

    MI

    Формат : AVI
    Формат/Информация : Audio Video Interleave
    Размер файла : 750 Мбайт
    Продолжительность : 1 ч. 43 м.
    Общий поток : 1015 Кбит/сек
    Программа кодирования : VirtualDubMod 1.5.10.3 | www.virtualdub-fr.org || (build 2550/release)
    Библиотека кодирования : VirtualDubMod build 2550/release
    Видео
    Идентификатор : 0
    Формат : MPEG-4 Visual
    Профиль формата : Advanced Simple@L5
    Параметр BVOP формата : 1
    Параметр QPel формата : Нет
    Параметр GMC формата : Без точки перехода
    Параметр матрицы формата : Выборочная
    Идентификатор кодека : XVID
    Идентификатор кодека/Подсказка : XviD
    Продолжительность : 1 ч. 43 м.
    Битрейт : 878 Кбит/сек
    Ширина : 688 пикселей
    Высота : 288 пикселей
    Соотношение сторон : 2,40:1
    Частота кадров : 24,000 кадра/сек
    Цветовое пространство : YUV
    Субдискретизация насыщенности : 4:2:0
    Битовая глубина : 8 бит
    Тип развёртки : Прогрессивная
    Метод сжатия : С потерями
    Бит/(Пиксели*Кадры) : 0.185
    Размер потока : 648 Мбайт (86%)
    Библиотека кодирования : XviD 1.2.1 (UTC 2008-12-04)
    Аудио
    Идентификатор : 1
    Формат : MPEG Audio
    Версия формата : Version 1
    Профиль формата : Layer 3
    Идентификатор кодека : 55
    Идентификатор кодека/Подсказка : MP3
    Продолжительность : 1 ч. 43 м.
    Вид битрейта : Постоянный
    Битрейт : 128 Кбит/сек
    Каналы : 2 канала
    Частота : 48,0 КГц
    Метод сжатия : С потерями
    Размер потока : 94,5 Мбайт (13%)
    Выравнивание : Соединение по промежуткам
    Продолжительность промежутка : 42 мс. (1,00 видеокадр)
    Время предзагрузки промежутка : 504 мс.
    Библиотека кодирования : LAME3.98r
    Настройки программы : -m s -V 4 -q 2 -lowpass 17 -b 128

    Скриншоты

    Скачать .torrent

    Скачать торрент-файл бесплатно и на максимальной скорости!

    Как скачивать? · Что такое торрент? · Рейтинг и ограничения

    !ВНИМАНИЕ!
    Сайт не распространяет и не хранит электронные версии произведений, а занимается лишь лишь предоставлением доступа к создаваемому пользователями каталогу ссылок на торрент-файлы, которые содержат только списки хеш-сумм, убедительная просьба с жалобами обращаться напрямую к пользователю. Файлы для обмена на трекере предоставлены пользователями сайта, и администрация не несёт ответственности за их содержание. Просьба не заливать файлы, защищенные авторскими правами, а также файлы нелегального содержания!

    [Профиль] [ЛС]
    Показать сообщения:    
    Ответить на тему

    Текущее время: Сегодня, в 13:50

    Часовой пояс: GMT + 2



    Вы не можете начинать темы
    Вы не можете отвечать на сообщения
    Вы не можете редактировать свои сообщения
    Вы не можете удалять свои сообщения
    Вы не можете голосовать в опросах
    Вы не можете прикреплять файлы к сообщениям
    Вы не можете скачивать файлы