BitTorrentTracker PerecTracker.org
BitTorrentTracker PerecTracker.org
    
Регистрация  ·  Вход
 
 · 
Забыли пароль?

  • Горец 3: Последнее измерение / Горец 3: Чародей / Highlander III: The Sorcerer / Highlander III: The Final Dimension (Эндрю Морахэн / Andrew Morahan) [1994, США, Фантастика, боевик, DVDRip] MVO (ОРТ) + Original Eng

    Ответить на тему
     
    Автор Сообщение

    Columb

    Создавать темы 15-Авг-2014 13:09

           

    [Цитировать]

    Горец 3: Последнее измерение / Горец 3: Чародей / Highlander III: The Sorcerer / Highlander III: The Final Dimension
    Страна: США
    Жанр: Фантастика, боевик
    Год выпуска: 1994
    Продолжительность: 01:34:33
    Перевод: Профессиональный (многоголосый закадровый) ОРТ
    Cубтитры: нет
    Оригинальная аудиодорожка: английский
    Режиссер: Эндрю Морахэн / Andrew Morahan
    В ролях: Кристофер Ламбер, Марио Ван Пиблз, Дебора Кара Ангер, Мако
    Описание: Бессмертный воин Коннор Маклауд вновь вызван на поединок, на этот раз своим самым могущественным врагом, Колдуном Кейном, заточенным под мистической горой в Японии 300 лет назад и достигшим невероятной магической силы. Ничего не подозревающие археологи освобождают Кейна. Для того, чтобы править миром колдуну нужна магическая энергия, которую он сможет получить только убив Горца. Маклауд скрывается в родные горы Шотландии, чтобы подготовиться к решающей битве и выковать новый меч в старинной кузнице. Он встречает Алекс, ученую из музея Античной Истории. Много лет назад в другой жизни Алекс и Маклауд любили друг друга. Алекс пытается его поддержать, окончательно разгадав мистическое предназначение сражения Горца с Колдуном, которое может положить конец вечной войне за магическую энергию, сверхъестественное могущество и абсолютную власть над миром.
    За дорожку ОРТ спасибо bora86bora
    На 01:16:41 - 01:16:49 вставка альтернативной многоголоски.
    Качество видео: DVDRip
    Формат видео: AVI
    Видео: 704x528 (1.33:1), 25 fps, XviD build 64 ~1575 kbps avg, 0.17 bit/pixel
    Аудио: 48 kHz, AC3 Dolby Digital, 2/0 (L,R) ch, ~224 kbps (ОРТ)
    Аудио 2: 48 kHz, AC3 Dolby Digital, 2/0 (L,R) ch, ~224 kbps (Eng)

    MediaInfo

    General
    Complete name : C:\Горец-3.avi
    Format : AVI
    Format/Info : Audio Video Interleave
    File size : 1.35 GiB
    Duration : 1h 34mn
    Overall bit rate : 2 039 Kbps
    Movie name : Highlander III: The Sorcerer
    Director : Rip by MC
    Genre : Fantasy/Action
    Writing application : VirtualDubMod 1.5.10.2 (build 2540/release)
    Writing library : VirtualDubMod build 2540/release
    Original source form/Name : Home Video
    Video
    ID : 0
    Format : MPEG-4 Visual
    Format profile : Advanced Simple@L5
    Format settings, BVOP : 2
    Format settings, QPel : No
    Format settings, GMC : No warppoints
    Format settings, Matrix : Default (MPEG)
    Codec ID : XVID
    Codec ID/Hint : XviD
    Duration : 1h 34mn
    Bit rate : 1 577 Kbps
    Width : 704 pixels
    Height : 528 pixels
    Display aspect ratio : 4:3
    Frame rate : 25.000 fps
    Color space : YUV
    Chroma subsampling : 4:2:0
    Bit depth : 8 bits
    Scan type : Progressive
    Compression mode : Lossy
    Bits/(Pixel*Frame) : 0.170
    Stream size : 1.04 GiB (77%)
    Writing library : XviD 64
    Audio #1
    ID : 1
    Format : AC-3
    Format/Info : Audio Coding 3
    Mode extension : CM (complete main)
    Format settings, Endianness : Big
    Codec ID : 2000
    Duration : 1h 34mn
    Bit rate mode : Constant
    Bit rate : 224 Kbps
    Channel(s) : 2 channels
    Channel positions : Front: L R
    Sampling rate : 48.0 KHz
    Bit depth : 16 bits
    Compression mode : Lossy
    Stream size : 151 MiB (11%)
    Alignment : Split accross interleaves
    Interleave, duration : 40 ms (1.00 video frame)
    Interleave, preload duration : 500 ms
    Audio #2
    ID : 2
    Format : AC-3
    Format/Info : Audio Coding 3
    Mode extension : CM (complete main)
    Format settings, Endianness : Big
    Codec ID : 2000
    Duration : 1h 34mn
    Bit rate mode : Constant
    Bit rate : 224 Kbps
    Channel(s) : 2 channels
    Channel positions : Front: L R
    Sampling rate : 48.0 KHz
    Bit depth : 16 bits
    Compression mode : Lossy
    Stream size : 151 MiB (11%)
    Alignment : Split accross interleaves
    Interleave, duration : 40 ms (1.00 video frame)
    Interleave, preload duration : 500 ms

    Скриншоты

    Скачать .torrent

    Скачать торрент-файл бесплатно и на максимальной скорости!

    Как скачивать? · Что такое торрент? · Рейтинг и ограничения

    !ВНИМАНИЕ!
    Сайт не распространяет и не хранит электронные версии произведений, а занимается лишь лишь предоставлением доступа к создаваемому пользователями каталогу ссылок на торрент-файлы, которые содержат только списки хеш-сумм, убедительная просьба с жалобами обращаться напрямую к пользователю. Файлы для обмена на трекере предоставлены пользователями сайта, и администрация не несёт ответственности за их содержание. Просьба не заливать файлы, защищенные авторскими правами, а также файлы нелегального содержания!

    [Профиль] [ЛС]
    Показать сообщения:    
    Ответить на тему

    Текущее время: Сегодня, в 14:03

    Часовой пояс: GMT + 2



    Вы не можете начинать темы
    Вы не можете отвечать на сообщения
    Вы не можете редактировать свои сообщения
    Вы не можете удалять свои сообщения
    Вы не можете голосовать в опросах
    Вы не можете прикреплять файлы к сообщениям
    Вы не можете скачивать файлы