BitTorrentTracker PerecTracker.org
BitTorrentTracker PerecTracker.org
    
Регистрация  ·  Вход
 
 · 
Забыли пароль?

  • Профессионалы / Марсельский контракт / The Marseille Contract / The Destructors (Роберт Пэрриш / Robert Parrish) [1974, Франция, Великобритания, Триллер, драма, DVDRip] AVO (А. Михалев)

    Ответить на тему
     
    Автор Сообщение

    Columb

    Создавать темы 15-Авг-2014 13:00

           

    [Цитировать]

    Профессионалы / Марсельский контрактThe Marseille Contract / The Destructors--Страна: Франция, Великобритания
    Жанр: Триллер, драма
    Год выпуска: 1974
    Продолжительность: 01:30:44-Перевод: Авторский (одноголосый закадровый) А. Михалев
    Cубтитры: нет
    Режиссер: Роберт Пэрриш / Robert Parrish-В ролях: Майкл Кейн, Энтони Куинн, Джеймс Мэйсон, Морис Роне, Александра Стюарт, Морин Кервин, Катрин Рувель, Марсель Боццуффи, Андре Умански-Описание: Когда агент спецслужбы Вентура не сумел разобраться с наркобароном Бризаром законным путем, он заключил договор с киллером. Последствия такого «сотрудничества» непредсказуемы…-Качество видео: DVDRip
    Формат видео: AVI-Видео: 720x384 (1:85:1), 23.976 fps, XviD build 73 ~2 102 Kbps Kbps avg, 0.32 bit/pixel
    Аудио: 48 kHz, AC3 Dolby Digital, 2/0 (L,R) ch, ~192 kbps avg (А. Михалев)-Sample-Цитата:
    Цитата:

    Звуковая дорожка с переводом Алексея Михалева появилась благодаря budulai-8.
    Работа со звуком edsz
    -

    MediaInfo

    General
    Complete name : D:\Temp\The Marseille Contract .avi
    Format : AVI
    Format/Info : Audio Video Interleave
    File size : 1.46 GiB
    Duration : 1h 30mn
    Overall bit rate : 2 303 Kbps
    Writing application : VirtualDubMod 1.5.10.3 | www.virtualdub-fr.org || (build 2550/release)
    Writing library : VirtualDubMod build 2550/release
    Video
    ID : 0
    Format : MPEG-4 Visual
    Format profile : Advanced Simple@L5
    Format settings, BVOP : 1
    Format settings, QPel : No
    Format settings, GMC : No warppoints
    Format settings, Matrix : Custom
    Codec ID : XVID
    Codec ID/Hint : XviD
    Duration : 1h 30mn
    Bit rate : 2 102 Kbps
    Width : 720 pixels
    Height : 384 pixels
    Display aspect ratio : 1.85:1
    Frame rate : 23.976 fps
    Color space : YUV
    Chroma subsampling : 4:2:0
    Bit depth : 8 bits
    Scan type : Progressive
    Compression mode : Lossy
    Bits/(Pixel*Frame) : 0.317
    Stream size : 1.33 GiB (91%)
    Writing library : XviD 73
    Audio
    ID : 1
    Format : AC-3
    Format/Info : Audio Coding 3
    Mode extension : CM (complete main)
    Format settings, Endianness : Big
    Codec ID : 2000
    Duration : 1h 30mn
    Bit rate mode : Constant
    Bit rate : 192 Kbps
    Channel(s) : 2 channels
    Channel positions : Front: L R
    Sampling rate : 48.0 KHz
    Bit depth : 16 bits
    Compression mode : Lossy
    Stream size : 125 MiB (8%)
    Alignment : Split accross interleaves
    Interleave, duration : 42 ms (1.00 video frame)
    Interleave, preload duration : 500 ms

    Скриншоты

    -Первый фильм, переведенный Алексеем Михалевым (ноябрь 1979 г.).-
    Скачать .torrent

    Скачать торрент-файл бесплатно и на максимальной скорости!

    Как скачивать? · Что такое торрент? · Рейтинг и ограничения

    !ВНИМАНИЕ!
    Сайт не распространяет и не хранит электронные версии произведений, а занимается лишь лишь предоставлением доступа к создаваемому пользователями каталогу ссылок на торрент-файлы, которые содержат только списки хеш-сумм, убедительная просьба с жалобами обращаться напрямую к пользователю. Файлы для обмена на трекере предоставлены пользователями сайта, и администрация не несёт ответственности за их содержание. Просьба не заливать файлы, защищенные авторскими правами, а также файлы нелегального содержания!

    [Профиль] [ЛС]
    Показать сообщения:    
    Ответить на тему

    Текущее время: Сегодня, в 03:14

    Часовой пояс: GMT + 2



    Вы не можете начинать темы
    Вы не можете отвечать на сообщения
    Вы не можете редактировать свои сообщения
    Вы не можете удалять свои сообщения
    Вы не можете голосовать в опросах
    Вы не можете прикреплять файлы к сообщениям
    Вы не можете скачивать файлы