Register  ·  Log in
Forgot password?

  • Профессионалы / Марсельский контракт / The Marseille Contract / The Destructors (Роберт Пэрриш / Robert Parrish) [1974, Франция, Великобритания, Триллер, драма, DVDRip] AVO (А. Михалев)

    Reply to topic
    Author Message


    Post 15-Aug-2014 14:00



    Профессионалы / Марсельский контрактThe Marseille Contract / The Destructors--Страна: Франция, Великобритания
    Жанр: Триллер, драма
    Год выпуска: 1974
    Продолжительность: 01:30:44-Перевод: Авторский (одноголосый закадровый) А. Михалев
    Cубтитры: нет
    Режиссер: Роберт Пэрриш / Robert Parrish-В ролях: Майкл Кейн, Энтони Куинн, Джеймс Мэйсон, Морис Роне, Александра Стюарт, Морин Кервин, Катрин Рувель, Марсель Боццуффи, Андре Умански-Описание: Когда агент спецслужбы Вентура не сумел разобраться с наркобароном Бризаром законным путем, он заключил договор с киллером. Последствия такого «сотрудничества» непредсказуемы…-Качество видео: DVDRip
    Формат видео: AVI-Видео: 720x384 (1:85:1), 23.976 fps, XviD build 73 ~2 102 Kbps Kbps avg, 0.32 bit/pixel
    Аудио: 48 kHz, AC3 Dolby Digital, 2/0 (L,R) ch, ~192 kbps avg (А. Михалев)-Sample-Цитата:

    Звуковая дорожка с переводом Алексея Михалева появилась благодаря budulai-8.
    Работа со звуком edsz


    Complete name : D:\Temp\The Marseille Contract .avi
    Format : AVI
    Format/Info : Audio Video Interleave
    File size : 1.46 GiB
    Duration : 1h 30mn
    Overall bit rate : 2 303 Kbps
    Writing application : VirtualDubMod | || (build 2550/release)
    Writing library : VirtualDubMod build 2550/release
    ID : 0
    Format : MPEG-4 Visual
    Format profile : Advanced Simple@L5
    Format settings, BVOP : 1
    Format settings, QPel : No
    Format settings, GMC : No warppoints
    Format settings, Matrix : Custom
    Codec ID : XVID
    Codec ID/Hint : XviD
    Duration : 1h 30mn
    Bit rate : 2 102 Kbps
    Width : 720 pixels
    Height : 384 pixels
    Display aspect ratio : 1.85:1
    Frame rate : 23.976 fps
    Color space : YUV
    Chroma subsampling : 4:2:0
    Bit depth : 8 bits
    Scan type : Progressive
    Compression mode : Lossy
    Bits/(Pixel*Frame) : 0.317
    Stream size : 1.33 GiB (91%)
    Writing library : XviD 73
    ID : 1
    Format : AC-3
    Format/Info : Audio Coding 3
    Mode extension : CM (complete main)
    Format settings, Endianness : Big
    Codec ID : 2000
    Duration : 1h 30mn
    Bit rate mode : Constant
    Bit rate : 192 Kbps
    Channel(s) : 2 channels
    Channel positions : Front: L R
    Sampling rate : 48.0 KHz
    Bit depth : 16 bits
    Compression mode : Lossy
    Stream size : 125 MiB (8%)
    Alignment : Split accross interleaves
    Interleave, duration : 42 ms (1.00 video frame)
    Interleave, preload duration : 500 ms


    -Первый фильм, переведенный Алексеем Михалевым (ноябрь 1979 г.).-
    Download .torrent

    Download free and at maximum speed!

    How to Download? · What is a torrent? · Ratings and Limitations

    The site does not extend and does not store electronic(digital) versions of products, and only gives access to a reference catalogue created by users on torrent-files which contain only lists of the hash-sums, the earnest entreaty, with complaints(abuse) to access directly to the user. Files for an exchange on tracker are given by users of a site, and the administration does not bear the responsibility for their maintenance. The request to not fill in the files protected by copyrights, and also files of the illegal maintenance!

    [Profile] [PM]
    Display posts from previous:    
    Reply to topic

    The time now is: Today 21:49

    All times are GMT + 3 Hours

    You cannot post new topics in this forum
    You cannot reply to topics in this forum
    You cannot edit your posts in this forum
    You cannot delete your posts in this forum
    You cannot vote in polls in this forum
    You cannot attach files in this forum
    You cannot download files in this forum