BitTorrentTracker PerecTracker.org
BitTorrentTracker PerecTracker.org
    
Регистрация  ·  Вход
 
 · 
Забыли пароль?

  • Хищники / Les félins (Рене Клеман / René Clément) [1964, Франция, Триллер, DVDRip-AVC] MVO

    Ответить на тему
     
    Автор Сообщение

    Columb

    Создавать темы 15-Авг-2014 12:55

           

    [Цитировать]

    Хищники / Les félins-Страна: Франция
    Жанр: Триллер
    Год выпуска: 1964
    Продолжительность: 01:33:05
    Перевод: Профессиональный (многоголосый закадровый)
    Cубтитры: нет-Режиссер: Рене Клеман / René Clément-В ролях:
    Ален Делон / Alain Delon, Джейн Фонда / Jane Fonda, Лола Олбрайт / Lola Albright, Соррелл Бук / Sorrell Booke, Карл Штудер / Carl Studer, Андре Умански / Andre Oumansky
    Описание:
    Молодой повеса Марк, соблазнивший жену американского гангстера МакКина, приговорен им к смерти. Марку чудом удается бежать и скрыться в приюте для бездомных, где он и знакомится с Барбарой - вдовой, живущей в роскошном особняке вместе с двоюродной сестрой. Она забирает Марка к себе, предлагает ему стать ее личным шофером. Однако ее забота вызвана вовсе не душевной добротой ...-Source | Sample | Kinopoisk-Качество видео: DVDRip-AVC
    Формат видео: MKV
    Видео: x264 (High@L4.1); Анаморф 720@1016x432, Display aspect ratio 2.35:1, 25.000 fps, 1852 Kbps
    Аудио: Русский, AC-3; 16 bits 48 Khz; 6ch 384 Kbps; CBR

    MediaInfo

    -

    x264 log

    avs [info]: 720x432p 24:17 @ 25/1 fps (cfr)
    x264 [info]: using SAR=24/17
    x264 [info]: using cpu capabilities: MMX2 SSE2Fast SSSE3 SSE4.2
    x264 [info]: profile High, level 4.1
    x264 [info]: frame I:802 Avg QP:15.81 size: 36885
    x264 [info]: frame P:32541 Avg QP:18.32 size: 17004
    x264 [info]: frame B:106292 Avg QP:20.69 size: 6681
    x264 [info]: consecutive B-frames: 2.0% 3.3% 17.4% 16.1% 8.5% 50.0% 1.8% 0.3% 0.4% 0.1% 0.1%
    x264 [info]: mb I I16..4: 4.2% 82.5% 13.3%
    x264 [info]: mb P I16..4: 0.8% 24.5% 1.7% P16..4: 25.0% 29.0% 13.4% 2.2% 0.2% skip: 3.0%
    x264 [info]: mb B I16..4: 0.1% 3.5% 0.2% B16..8: 29.8% 24.2% 4.6% direct:10.9% skip:26.7% L0:34.4% L1:39.0% BI:26.6%
    x264 [info]: 8x8 transform intra:90.9% inter:55.2%
    x264 [info]: direct mvs spatial:99.1% temporal:0.9%
    x264 [info]: coded y,uvDC,uvAC intra: 91.7% 0.0% 0.0% inter: 35.9% 0.0% 0.0%
    x264 [info]: i16 v,h,dc,p: 32% 12% 10% 45%
    x264 [info]: i8 v,h,dc,ddl,ddr,vr,hd,vl,hu: 21% 11% 15% 6% 8% 10% 8% 11% 11%
    x264 [info]: i4 v,h,dc,ddl,ddr,vr,hd,vl,hu: 20% 8% 8% 7% 13% 15% 11% 10% 8%
    x264 [info]: i8c dc,h,v,p: 48% 52% 0% 0%
    x264 [info]: Weighted P-Frames: Y:19.2% UV:0.0%
    x264 [info]: ref P L0: 42.2% 13.3% 16.5% 6.1% 4.9% 3.4% 3.1% 1.7% 1.6% 1.3% 1.2% 1.0% 1.0% 0.9% 0.9% 0.7%
    x264 [info]: ref B L0: 81.8% 9.4% 2.7% 1.6% 1.0% 0.9% 0.6% 0.4% 0.3% 0.3% 0.3% 0.3% 0.2% 0.2% 0.1%
    x264 [info]: ref B L1: 95.5% 4.5%
    x264 [info]: kb/s:1852.03
    x264 [total]: encoded 139635 frames, 15.18 fps, 1852.03 kb/s
    -General
    Unique ID : 211436678430614544776066257435076376862 (0x9F113918B2FD45F98B2EA3B11294B91E)
    Complete name : Хищники.1964.mkv
    Format : Matroska
    Format version : Version 2
    File size : 1.46 GiB
    Duration : 1h 33mn
    Overall bit rate : 2 238 Kbps
    Movie name : «Хищники / Les félins»
    Encoded date : UTC 2013-06-21 15:15:17
    Writing application : mkvmerge v5.8.0 ('No Sleep / Pillow') built on Sep 2 2012 15:37:04
    Writing library : libebml v1.2.3 + libmatroska v1.3.0
    Comment : DVDRip-AVC
    Original date released : June 21th 2013
    Encoded by : imgeorgest®
    Video
    ID : 1
    Format : AVC
    Format/Info : Advanced Video Codec
    Format profile : High@L4.1
    Format settings, CABAC : Yes
    Format settings, ReFrames : 16 frames
    Codec ID : V_MPEG4/ISO/AVC
    Duration : 1h 33mn
    Bit rate : 1 852 Kbps
    Width : 720 pixels
    Height : 432 pixels
    Display aspect ratio : 2.35:1
    Original display aspect ratio : 2.35:1
    Frame rate : 25.000 fps
    Color space : YUV
    Chroma subsampling : 4:2:0
    Bit depth : 8 bits
    Scan type : Progressive
    Bits/(Pixel*Frame) : 0.238
    Stream size : 1.18 GiB (81%)
    Title : Хищники / Les félins 1964
    Writing library : x264 core 130 r2273 b3065e6
    Encoding settings : cabac=1 / ref=16 / deblock=1:-2:-2 / analyse=0x3:0x133 / me=umh / subme=11 / psy=1 / psy_rd=1.00:0.17 / mixed_ref=1 / me_range=48 / chroma_me=1 / trellis=2 / 8x8dct=1 / cqm=0 / deadzone=21,11 / fast_pskip=0 / chroma_qp_offset=-3 / threads=12 / lookahead_threads=3 / sliced_threads=0 / nr=0 / decimate=0 / interlaced=0 / bluray_compat=0 / constrained_intra=0 / bframes=10 / b_pyramid=2 / b_adapt=2 / b_bias=0 / direct=3 / weightb=1 / open_gop=0 / weightp=2 / keyint=250 / keyint_min=25 / scenecut=40 / intra_refresh=0 / rc_lookahead=40 / rc=2pass / mbtree=0 / bitrate=1852 / ratetol=1.0 / qcomp=0.60 / qpmin=0 / qpmax=69 / qpstep=4 / cplxblur=20.0 / qblur=0.5 / vbv_maxrate=50000 / vbv_bufsize=62500 / nal_hrd=none / ip_ratio=1.40 / pb_ratio=1.30 / aq=2:1.00
    Language : French
    Default : Yes
    Forced : No
    Color primaries : BT.470-6 System B, BT.470-6 System G, BT.601-6 625, BT.1358 625, BT.1700 625 PAL, BT.1700 625 SECAM
    Transfer characteristics : BT.470-6 System B, BT.470-6 System G
    Matrix coefficients : BT.470-6 System B, BT.470-6 System G, BT.601-6 625, BT.1358 625, BT.1700 625 PAL, BT.1700 625 SECAM, IEC 61966-2-4 601
    Audio
    ID : 2
    Format : AC-3
    Format/Info : Audio Coding 3
    Mode extension : CM (complete main)
    Codec ID : A_AC3
    Duration : 1h 33mn
    Bit rate mode : Constant
    Bit rate : 384 Kbps
    Channel(s) : 6 channels
    Channel positions : Front: L C R, Side: L R, LFE
    Sampling rate : 48.0 KHz
    Bit depth : 16 bits
    Compression mode : Lossy
    Stream size : 256 MiB (17%)
    Title : MVO: AC-3; 16 bits 48 Khz; 6ch 384 Kbps; CBR
    Language : Russian
    Default : Yes
    Forced : No
    Скачать .torrent

    Скачать торрент-файл бесплатно и на максимальной скорости!

    Как скачивать? · Что такое торрент? · Рейтинг и ограничения

    !ВНИМАНИЕ!
    Сайт не распространяет и не хранит электронные версии произведений, а занимается лишь лишь предоставлением доступа к создаваемому пользователями каталогу ссылок на торрент-файлы, которые содержат только списки хеш-сумм, убедительная просьба с жалобами обращаться напрямую к пользователю. Файлы для обмена на трекере предоставлены пользователями сайта, и администрация не несёт ответственности за их содержание. Просьба не заливать файлы, защищенные авторскими правами, а также файлы нелегального содержания!

    [Профиль] [ЛС]
    Показать сообщения:    
    Ответить на тему

    Текущее время: Сегодня, в 18:30

    Часовой пояс: GMT + 2



    Вы не можете начинать темы
    Вы не можете отвечать на сообщения
    Вы не можете редактировать свои сообщения
    Вы не можете удалять свои сообщения
    Вы не можете голосовать в опросах
    Вы не можете прикреплять файлы к сообщениям
    Вы не можете скачивать файлы