BitTorrentTracker PerecTracker.org
BitTorrentTracker PerecTracker.org
    
Регистрация  ·  Вход
 
 · 
Забыли пароль?

  • Истина / La vérité / La verite / The Truth (Анри-Жорж Клузо / Henri-Georges Clouzot) [1960, Франция, Италия, драма, HDTVRip] MVO + Original (Fre)

    Ответить на тему
     
    Автор Сообщение

    Columb

    Создавать темы 15-Авг-2014 12:52

           

    [Цитировать]

    Истина / La vérité / La verite / The Truth
    Год выпуска: 1960
    Страна: Франция, Италия
    Жанр: драма
    Продолжительность: 02:02:14
    Перевод: Профессиональный (многоголосый, закадровый) - НТВ+
    Субтитры: нет
    Оригинальная аудиодорожка: французский
    Режиссер: Анри-Жорж Клузо / Henri-Georges Clouzot
    В ролях: Брижит Бардо (Dominique Marceau), Поль Мёрисс (Maître Éparvier), Шарль Ванель (Maître Guérin), Сами Фре (Gilbert Tellier), Мари-Жозе Нат (Annie Marceau), Жан-Луп Рейнолд (Michel), Андре Умански (Ludovic), Клод Берри (Georges), Жак Перрен (Jérôme), Барбара Соммерс (Daisy), Луи Сенье (Le président des assises), Раймон Мёнье (Le cuistot du «Spoutnik»)-Мировая премьера: 2 ноября 1960-Описание: Приехавшая из провинции Доменик быстро развращается, теряет иллюзии и вскоре опускается на самое дно. Однако внутренне она стремится к чистой любви. Увы, любовь, о которой она так мечтала, терпит крах. Возлюбленный отказывается от Доменик, оскорбляет и унижает ее. В порыве гнева и отчаяния Доменик убивает его и оказывается в тюремной камере...-[/url]Рейтинг
    : 8.112 (374)
    : 7.60 (1280)
    -Качество:HDTVRip
    Формат: AVI //SAMPLE//
    Видео: 704x400 (1.76:1), 25 fps, XviD build 65 ~2167 kbps avg, 0.31 bit/pixel
    Аудио RUS: 48 kHz, AC3 Dolby Digital, 2/0 (L,R) ch, ~192 kbps - MVO
    Аудио FRE: 48 kHz, AC3 Dolby Digital, 2/0 (L,R) ch, ~192 kbps - Original

    MediaInfo

    Общее
    Полное имя : F:\Video\AVI\Films\Istina.1960.DUAL.HDTVRip.XviD.AC3.-AllFilms.avi
    Формат : AVI
    Формат/Информация : Audio Video Interleave
    Профиль формата : OpenDML
    Размер файла : 2,18 Гбайт
    Продолжительность : 2 ч. 2 м.
    Общий поток : 2558 Кбит/сек
    Название фильма : Истина / La verite / La verite / The Truth (1960)
    Режиссёр : Shevon (HDTV 1080i)
    Программа кодирования : VirtualDubMod 1.5.10.3 | www.virtualdub-fr.org || (build 2550/release)
    Правообладатель : AllFilms (rutracker.org)
    Видео
    Идентификатор : 0
    Формат : MPEG-4 Visual
    Профиль формата : Advanced Simple@L5
    Параметр BVOP формата : 1
    Параметр QPel формата : Нет
    Параметр GMC формата : Без точки перехода
    Параметр матрицы формата : Выборочная
    Идентификатор кодека : XVID
    Идентификатор кодека/Подсказка : XviD
    Продолжительность : 2 ч. 2 м.
    Битрейт : 2156 Кбит/сек
    Ширина : 704 пикселя
    Высота : 400 пикселей
    Соотношение сторон : 16:9
    Частота кадров : 25,000 кадров/сек
    Цветовое пространство : YUV
    Субдискретизация насыщенности : 4:2:0
    Битовая глубина : 8 бит
    Тип развёртки : Прогрессивная
    Метод сжатия : С потерями
    Бит/(Пиксели*Кадры) : 0.306
    Размер потока : 1,84 Гбайт (84%)
    Библиотека кодирования : XviD 65
    Аудио #1
    Идентификатор : 1
    Формат : AC-3
    Формат/Информация : Audio Coding 3
    Расширение режима : CM (complete main)
    Параметр Endianness формата : Big
    Идентификатор кодека : 2000
    Продолжительность : 2 ч. 2 м.
    Вид битрейта : Постоянный
    Битрейт : 192 Кбит/сек
    Каналы : 2 канала
    Расположение каналов : Front: L R
    Частота : 48,0 КГц
    Битовая глубина : 16 бит
    Метод сжатия : С потерями
    Размер потока : 168 Мбайт (8%)
    Выравнивание : Разделение по промежуткам
    Продолжительность промежутка : 40 мс. (1,00 видеокадр)
    Время предзагрузки промежутка : 500 мс.
    Аудио #2
    Идентификатор : 2
    Формат : AC-3
    Формат/Информация : Audio Coding 3
    Расширение режима : CM (complete main)
    Параметр Endianness формата : Big
    Идентификатор кодека : 2000
    Продолжительность : 2 ч. 2 м.
    Вид битрейта : Постоянный
    Битрейт : 192 Кбит/сек
    Каналы : 2 канала
    Расположение каналов : Front: L R
    Частота : 48,0 КГц
    Битовая глубина : 16 бит
    Метод сжатия : С потерями
    Размер потока : 168 Мбайт (8%)
    Выравнивание : Разделение по промежуткам
    Продолжительность промежутка : 40 мс. (1,00 видеокадр)
    Время предзагрузки промежутка : 500 мс.

    Скриншоты

    -
    Скачать .torrent

    Скачать торрент-файл бесплатно и на максимальной скорости!

    Как скачивать? · Что такое торрент? · Рейтинг и ограничения

    !ВНИМАНИЕ!
    Сайт не распространяет и не хранит электронные версии произведений, а занимается лишь лишь предоставлением доступа к создаваемому пользователями каталогу ссылок на торрент-файлы, которые содержат только списки хеш-сумм, убедительная просьба с жалобами обращаться напрямую к пользователю. Файлы для обмена на трекере предоставлены пользователями сайта, и администрация не несёт ответственности за их содержание. Просьба не заливать файлы, защищенные авторскими правами, а также файлы нелегального содержания!

    [Профиль] [ЛС]
    Показать сообщения:    
    Ответить на тему

    Текущее время: Сегодня, в 06:15

    Часовой пояс: GMT + 2



    Вы не можете начинать темы
    Вы не можете отвечать на сообщения
    Вы не можете редактировать свои сообщения
    Вы не можете удалять свои сообщения
    Вы не можете голосовать в опросах
    Вы не можете прикреплять файлы к сообщениям
    Вы не можете скачивать файлы