BitTorrentTracker PerecTracker.org
BitTorrentTracker PerecTracker.org
    
Регистрация  ·  Вход
 
 · 
Забыли пароль?

  • Грязная игра / Play Dirty (Андре Де Тот / Andre De Toth) [1969, Великобритания, драма, приключения, военный, BDRip 720p] MVO + AVO (Рябов) + Original eng + Sub eng

    Ответить на тему
     
    Автор Сообщение

    Columb

    Создавать темы 15-Авг-2014 12:25

           

    [Цитировать]

    Грязная игра / Play Dirty
    Страна: Великобритания
    Жанр: драма, приключения, военный
    Год выпуска: 1969
    Продолжительность: 01:58:14
    Перевод#1: Профессиональный (многоголосый закадровый) | НТВ+
    Перевод#2: Авторский (одноголосый закадровый), С. Рябов
    Cубтитры: английские
    Оригинальная аудиодорожка: английский
    Режиссер: Андре Де Тот / André De Toth
    В ролях: Майкл Кейн, Найджел Девенпорт, Найджел Грин, Гарри Эндрюс, Патрик Джордан, Дэниэл Пилон, Martin Burland, George McKeenan, Bridget Espeet, Бернард Арчард
    Описание: Разгар Второй Мировой Войны. Северная Африка. Под командованием полковника английской армии Мастерса находится не совсем обычный отряд — все его члены бывшие убийцы и террористы, собранные по тюрьмам всего средиземноморья. Бригадный генерал Блор, в чьем подчинении находится Мастерс, хочет распустить отряд. Мастерс решает использовать последний шанс — операцию в глубоком тылу противника. Его подчиненные должны углубиться на территорию, контролируемую немцами, почти на 400 миль и уничтожить склад горючего, предназначенный для снабжения танковой армии Роммеля...

    Тип релиза: BDRip 720p (от DON) | sample
    Контейнер: MKV
    Видео кодек: x264
    Видео: AVC 1280x546 (2.35:1), 23.976 fps, ~9500 Kbps, 0.57 bit/pixel
    Аудио #1: Russian AC3 2ch 48kHz 192Kbps | MVO НТВ+
    Аудио #2: Russian AC3 2ch 48kHz 192Kbps | AVO Рябов
    Аудио #3: English FLAC 2ch 48kHz ~352Kbps | Original
    Формат субтитров: softsub (SRT)
    Главы: есть

    MediaInfo | x264

    x264

    x264 [info]: frame I:1185 Avg QP:15.92 size:136720
    x264 [info]: frame P:36782 Avg QP:17.61 size: 68390
    x264 [info]: frame B:132128 Avg QP:18.93 size: 43497
    x264 [info]: consecutive B-frames: 2.3% 3.6% 7.4% 15.8% 15.2% 42.3% 6.6% 2.1% 4.7%
    encoded 170095 frames, 4.10 fps, 9500.13 kb/s
    General
    Complete name : E:\...\Play.Dirty.1969.720p.BluRay.x264.Rus.Eng-DON.mkv
    Format : Matroska
    Format version : Version 2
    File size : 8.46 GiB
    Duration : 1h 58mn
    Overall bit rate mode : Variable
    Overall bit rate : 10.2 Mbps
    Movie name : Play.Dirty.1969.720p.BluRay.x264.Rus.Eng-DON
    Encoded date : UTC 2014-01-14 03:37:08
    Writing application : mkvmerge v6.5.0 ('Isn't she lovely') built on Oct 20 2013 12:50:05
    Writing library : libebml v1.3.0 + libmatroska v1.4.1
    Video
    ID : 1
    Format : AVC
    Format/Info : Advanced Video Codec
    Format profile : High@L4.1
    Format settings, CABAC : Yes
    Format settings, ReFrames : 11 frames
    Codec ID : V_MPEG4/ISO/AVC
    Duration : 1h 58mn
    Nominal bit rate : 9 500 Kbps
    Width : 1 280 pixels
    Height : 546 pixels
    Display aspect ratio : 2.35:1
    Original display aspect ratio : 2.35:1
    Frame rate mode : Constant
    Frame rate : 23.976 fps
    Color space : YUV
    Chroma subsampling : 4:2:0
    Bit depth : 8 bits
    Scan type : Progressive
    Bits/(Pixel*Frame) : 0.567
    Title : Play Dirty (1969)
    Writing library : x264 core 140 r2377 1ca7bb9
    Encoding settings : cabac=1 / ref=11 / deblock=1:-3:-3 / analyse=0x3:0x133 / me=tesa / subme=10 / psy=1 / psy_rd=1.10:0.00 / mixed_ref=1 / me_range=24 / chroma_me=1 / trellis=2 / 8x8dct=1 / cqm=0 / deadzone=21,11 / fast_pskip=0 / chroma_qp_offset=-2 / threads=12 / lookahead_threads=2 / sliced_threads=0 / nr=0 / decimate=0 / interlaced=0 / bluray_compat=0 / constrained_intra=0 / bframes=8 / b_pyramid=2 / b_adapt=2 / b_bias=0 / direct=3 / weightb=1 / open_gop=0 / weightp=2 / keyint=250 / keyint_min=23 / scenecut=40 / intra_refresh=0 / rc_lookahead=60 / rc=2pass / mbtree=0 / bitrate=9500 / ratetol=1.0 / qcomp=0.65 / qpmin=0 / qpmax=69 / qpstep=4 / cplxblur=20.0 / qblur=0.5 / vbv_maxrate=62500 / vbv_bufsize=78125 / nal_hrd=none / filler=0 / ip_ratio=1.30 / pb_ratio=1.20 / aq=1:0.70
    Language : English
    Default : Yes
    Forced : No
    Audio #1
    ID : 2
    Format : AC-3
    Format/Info : Audio Coding 3
    Mode extension : CM (complete main)
    Format settings, Endianness : Big
    Codec ID : A_AC3
    Duration : 1h 58mn
    Bit rate mode : Constant
    Bit rate : 192 Kbps
    Channel(s) : 2 channels
    Channel positions : Front: L R
    Sampling rate : 48.0 KHz
    Bit depth : 16 bits
    Compression mode : Lossy
    Stream size : 162 MiB (2%)
    Title : MVO NTV+
    Language : Russian
    Default : Yes
    Forced : No
    Audio #2
    ID : 3
    Format : AC-3
    Format/Info : Audio Coding 3
    Mode extension : CM (complete main)
    Format settings, Endianness : Big
    Codec ID : A_AC3
    Duration : 1h 58mn
    Bit rate mode : Constant
    Bit rate : 192 Kbps
    Channel(s) : 2 channels
    Channel positions : Front: L R
    Sampling rate : 48.0 KHz
    Bit depth : 16 bits
    Compression mode : Lossy
    Stream size : 162 MiB (2%)
    Title : AVO Ryabov
    Language : Russian
    Default : No
    Forced : No
    Audio #3
    ID : 4
    Format : FLAC
    Format/Info : Free Lossless Audio Codec
    Codec ID : A_FLAC
    Duration : 1h 58mn
    Bit rate mode : Variable
    Channel(s) : 2 channels
    Sampling rate : 48.0 KHz
    Bit depth : 16 bits
    Title : Original FLAC 2.0
    Writing library : libFLAC 1.2.1 (UTC 2007-09-17)
    Language : English
    Default : No
    Forced : No
    Text
    ID : 5
    Format : UTF-8
    Codec ID : S_TEXT/UTF8
    Codec ID/Info : UTF-8 Plain Text
    Language : English
    Default : No
    Forced : No
    Menu
    00:00:00.000 : en:00:00:00.000
    00:11:01.661 : en:00:11:01.661
    00:21:46.472 : en:00:21:46.472
    00:29:11.333 : en:00:29:11.333
    00:37:29.247 : en:00:37:29.247
    00:46:27.410 : en:00:46:27.410
    00:52:03.954 : en:00:52:03.954
    00:59:47.209 : en:00:59:47.209
    01:06:58.640 : en:01:06:58.640
    01:16:26.957 : en:01:16:26.957
    01:26:15.420 : en:01:26:15.420
    01:39:29.046 : en:01:39:29.046

    Скриншоты и сравнения

    source vs DON





    Скачать .torrent

    Скачать торрент-файл бесплатно и на максимальной скорости!

    Как скачивать? · Что такое торрент? · Рейтинг и ограничения

    !ВНИМАНИЕ!
    Сайт не распространяет и не хранит электронные версии произведений, а занимается лишь лишь предоставлением доступа к создаваемому пользователями каталогу ссылок на торрент-файлы, которые содержат только списки хеш-сумм, убедительная просьба с жалобами обращаться напрямую к пользователю. Файлы для обмена на трекере предоставлены пользователями сайта, и администрация не несёт ответственности за их содержание. Просьба не заливать файлы, защищенные авторскими правами, а также файлы нелегального содержания!

    [Профиль] [ЛС]
    Показать сообщения:    
    Ответить на тему

    Текущее время: Сегодня, в 03:23

    Часовой пояс: GMT + 2



    Вы не можете начинать темы
    Вы не можете отвечать на сообщения
    Вы не можете редактировать свои сообщения
    Вы не можете удалять свои сообщения
    Вы не можете голосовать в опросах
    Вы не можете прикреплять файлы к сообщениям
    Вы не можете скачивать файлы