BitTorrentTracker PerecTracker.org
BitTorrentTracker PerecTracker.org
    
Регистрация  ·  Вход
 
 · 
Забыли пароль?

  • Грязная игра / Play Dirty (Андре Де Тот / Andre De Toth) [1969, Великобритания, драма, приключения, военный, BDRip-AVC] MVO + AVO (Рябов) + Original (Eng) + Sub (Eng)

    Ответить на тему
     
    Автор Сообщение

    Columb

    Создавать темы 15-Авг-2014 12:23

           

    [Цитировать]

    Грязная игра / Play Dirty
    Страна: Великобритания
    Жанр: драма, приключения, военный
    Год выпуска: 1969
    Продолжительность: 01:58:14
    Перевод#1: Профессиональный (многоголосый закадровый) | НТВ+
    Перевод#2: Авторский (одноголосый закадровый), С. Рябов
    Cубтитры: английские
    Оригинальная аудиодорожка: английский
    Режиссер: Андре Де Тот / André De Toth
    В ролях: Майкл Кейн, Найджел Девенпорт, Найджел Грин, Гарри Эндрюс, Патрик Джордан, Дэниэл Пилон, Martin Burland, George McKeenan, Bridget Espeet, Бернард Арчард
    Описание: Разгар Второй Мировой Войны. Северная Африка. Под командованием полковника английской армии Мастерса находится не совсем обычный отряд — все его члены бывшие убийцы и террористы, собранные по тюрьмам всего средиземноморья. Бригадный генерал Блор, в чьем подчинении находится Мастерс, хочет распустить отряд. Мастерс решает использовать последний шанс — операцию в глубоком тылу противника. Его подчиненные должны углубиться на территорию, контролируемую немцами, почти на 400 миль и уничтожить склад горючего, предназначенный для снабжения танковой армии Роммеля...

    Качество видео: BDRip-AVC | sample
    Формат видео: MKV
    Видео кодек: x264
    Видео: AVC 1120x476 (2.40:1), 23.976 fps, ~4100 Kbps, 0.32 bit/pixel
    Аудио #1: Russian AC3 2ch 48kHz 192Kbps | MVO НТВ+
    Аудио #2: Russian AC3 2ch 48kHz 192Kbps | AVO Рябов
    Аудио #3: English AC3 2ch 48kHz 192Kbps | Original
    Формат субтитров: softsub (SRT)
    Главы: есть

    MediaInfo | x264

    x264

    --[Information] [12.01.2014 0:26:22] raw [info]: 1120x476p 1:1 @ 24000/1001 fps (cfr)
    --[Information] [12.01.2014 0:26:22] x264 [info]: using SAR=1/1
    --[Information] [12.01.2014 0:26:22] x264 [info]: using cpu capabilities: MMX2 SSE2Fast LZCNT
    --[Information] [12.01.2014 0:26:22] x264 [info]: profile High, level 4.1
    --[Information] [12.01.2014 0:26:22] x264 [info]: cabac=1 ref=12 deblock=1:-3:-3 analyse=0x3:0x113 me=umh subme=11 psy=1 fade_compensate=0.00 psy_rd=1.00:0.00 mixed_ref=1 me_range=48 chroma_me=1 trellis=2 8x8dct=1 cqm=0 deadzone=21,11 fast_pskip=1 chroma_qp_offset=-2 threads=6 lookahead_threads=1 sliced_threads=0 nr=0 decimate=1 interlaced=0 bluray_compat=0 constrained_intra=0 bframes=12 b_pyramid=2 b_adapt=2 b_bias=0 direct=1 weightb=1 open_gop=0 weightp=2 keyint=240 keyint_min=23 scenecut=40 intra_refresh=0 rc_lookahead=0 rc=crf mbtree=0 crf=18.2500 qcomp=0.60 qpmin=0 qpmax=69 qpstep=4 vbv_maxrate=50000 vbv_bufsize=62500 crf_max=0.0 nal_hrd=none ip_ratio=1.40 pb_ratio=1.30 aq=1:1.00
    --[Information] [12.01.2014 0:26:22] frames fps kb/s elapsed remain size est.size
    --[Information] [12.01.2014 12:52:50] x264 [info]: frame I:1189 Avg QP:19.45 size: 83760
    --[Information] [12.01.2014 12:52:50] x264 [info]: frame P:31944 Avg QP:20.60 size: 36663
    --[Information] [12.01.2014 12:52:50] x264 [info]: frame B:136963 Avg QP:22.55 size: 17223
    --[Information] [12.01.2014 12:52:50] x264 [info]: consecutive B-frames: 1.0% 1.3% 3.8% 15.0% 15.1% 44.5% 8.0% 2.7% 4.4% 1.1% 1.2% 1.4% 0.5%
    --[Information] [12.01.2014 12:52:50] x264 [info]: mb I I16..4: 0.3% 89.5% 10.2%
    --[Information] [12.01.2014 12:52:50] x264 [info]: mb P I16..4: 0.1% 16.6% 1.1% P16..4: 30.6% 36.3% 14.7% 0.0% 0.0% skip: 0.6%
    --[Information] [12.01.2014 12:52:50] x264 [info]: mb B I16..4: 0.0% 3.0% 0.1% B16..8: 37.9% 23.8% 5.2% direct: 9.8% skip:20.2% L0:44.7% L1:40.8% BI:14.5%
    --[Information] [12.01.2014 12:52:50] x264 [info]: 8x8 transform intra:94.2% inter:61.5%
    --[Information] [12.01.2014 12:52:50] x264 [info]: coded y,uvDC,uvAC intra: 99.2% 65.4% 24.2% inter: 50.3% 30.7% 0.7%
    --[Information] [12.01.2014 12:52:50] x264 [info]: i16 v,h,dc,p: 12% 14% 5% 69%
    --[Information] [12.01.2014 12:52:50] x264 [info]: i8 v,h,dc,ddl,ddr,vr,hd,vl,hu: 6% 7% 8% 11% 16% 13% 15% 11% 14%
    --[Information] [12.01.2014 12:52:50] x264 [info]: i4 v,h,dc,ddl,ddr,vr,hd,vl,hu: 8% 6% 2% 8% 18% 15% 17% 11% 14%
    --[Information] [12.01.2014 12:52:50] x264 [info]: i8c dc,h,v,p: 31% 35% 19% 15%
    --[Information] [12.01.2014 12:52:50] x264 [info]: Weighted P-Frames: Y:18.0% UV:11.6%
    --[Information] [12.01.2014 12:52:50] x264 [info]: ref P L0: 35.8% 13.5% 18.0% 7.2% 6.3% 4.3% 4.2% 2.3% 2.4% 1.9% 2.0% 1.8% 0.4% 0.0%
    --[Information] [12.01.2014 12:52:50] x264 [info]: ref B L0: 63.8% 13.5% 7.1% 4.0% 3.1% 2.6% 2.2% 1.4% 1.3% 0.8% 0.3%
    --[Information] [12.01.2014 12:52:50] x264 [info]: ref B L1: 90.6% 9.4%
    --[Information] [12.01.2014 12:52:50] x264 [info]: kb/s:4093.02
    General
    Complete name : E:\...\Play.Dirty.1969.BDRip.x264.DD2.0.Rus.Eng-E76.mkv
    Format : Matroska
    Format version : Version 2
    File size : 3.86 GiB
    Duration : 1h 58mn
    Overall bit rate : 4 671 Kbps
    Movie name : Play.Dirty.1969.BDRip.x264.DD2.0.Rus.Eng-E76
    Encoded date : UTC 2014-01-14 04:57:49
    Writing application : mkvmerge v6.5.0 ('Isn't she lovely') built on Oct 20 2013 12:50:05
    Writing library : libebml v1.3.0 + libmatroska v1.4.1
    Video
    ID : 1
    Format : AVC
    Format/Info : Advanced Video Codec
    Format profile : High@L4.1
    Format settings, CABAC : Yes
    Format settings, ReFrames : 12 frames
    Codec ID : V_MPEG4/ISO/AVC
    Duration : 1h 58mn
    Bit rate : 4 002 Kbps
    Width : 1 120 pixels
    Height : 476 pixels
    Display aspect ratio : 2.35:1
    Frame rate mode : Constant
    Frame rate : 23.976 fps
    Color space : YUV
    Chroma subsampling : 4:2:0
    Bit depth : 8 bits
    Scan type : Progressive
    Bits/(Pixel*Frame) : 0.313
    Stream size : 3.31 GiB (86%)
    Title : Encode by E76
    Writing library : x264 core 138 r2358kMod 9e941d1
    Encoding settings : cabac=1 / ref=12 / deblock=1:-3:-3 / analyse=0x3:0x113 / me=umh / subme=11 / psy=1 / fade_compensate=0.00 / psy_rd=1.00:0.00 / mixed_ref=1 / me_range=48 / chroma_me=1 / trellis=2 / 8x8dct=1 / cqm=0 / deadzone=21,11 / fast_pskip=1 / chroma_qp_offset=-2 / threads=6 / lookahead_threads=1 / sliced_threads=0 / nr=0 / decimate=1 / interlaced=0 / bluray_compat=0 / constrained_intra=0 / bframes=12 / b_pyramid=2 / b_adapt=2 / b_bias=0 / direct=1 / weightb=1 / open_gop=0 / weightp=2 / keyint=240 / keyint_min=23 / scenecut=40 / intra_refresh=0 / rc_lookahead=0 / rc=crf / mbtree=0 / crf=18.2500 / qcomp=0.60 / qpmin=0 / qpmax=69 / qpstep=4 / vbv_maxrate=50000 / vbv_bufsize=62500 / crf_max=0.0 / nal_hrd=none / ip_ratio=1.40 / pb_ratio=1.30 / aq=1:1.00
    Language : English
    Default : Yes
    Forced : No
    Matrix coefficients : BT.709
    Audio #1
    ID : 2
    Format : AC-3
    Format/Info : Audio Coding 3
    Mode extension : CM (complete main)
    Format settings, Endianness : Big
    Codec ID : A_AC3
    Duration : 1h 58mn
    Bit rate mode : Constant
    Bit rate : 192 Kbps
    Channel(s) : 2 channels
    Channel positions : Front: L R
    Sampling rate : 48.0 KHz
    Bit depth : 16 bits
    Compression mode : Lossy
    Stream size : 162 MiB (4%)
    Title : MVO NTV+
    Language : Russian
    Default : Yes
    Forced : No
    Audio #2
    ID : 3
    Format : AC-3
    Format/Info : Audio Coding 3
    Mode extension : CM (complete main)
    Format settings, Endianness : Big
    Codec ID : A_AC3
    Duration : 1h 58mn
    Bit rate mode : Constant
    Bit rate : 192 Kbps
    Channel(s) : 2 channels
    Channel positions : Front: L R
    Sampling rate : 48.0 KHz
    Bit depth : 16 bits
    Compression mode : Lossy
    Stream size : 162 MiB (4%)
    Title : AVO Ryabov
    Language : Russian
    Default : No
    Forced : No
    Audio #3
    ID : 4
    Format : AC-3
    Format/Info : Audio Coding 3
    Mode extension : CM (complete main)
    Format settings, Endianness : Big
    Codec ID : A_AC3
    Duration : 1h 58mn
    Bit rate mode : Constant
    Bit rate : 192 Kbps
    Channel(s) : 2 channels
    Channel positions : Front: L R
    Sampling rate : 48.0 KHz
    Bit depth : 16 bits
    Compression mode : Lossy
    Stream size : 162 MiB (4%)
    Title : Original
    Language : English
    Default : No
    Forced : No
    Text
    ID : 5
    Format : UTF-8
    Codec ID : S_TEXT/UTF8
    Codec ID/Info : UTF-8 Plain Text
    Language : English
    Default : No
    Forced : No
    Menu
    00:00:00.000 : en:00:00:00.000
    00:11:01.661 : en:00:11:01.661
    ...
    01:39:29.046 : en:01:39:29.046

    Скриншоты




    vs source
    Скачать .torrent

    Скачать торрент-файл бесплатно и на максимальной скорости!

    Как скачивать? · Что такое торрент? · Рейтинг и ограничения

    !ВНИМАНИЕ!
    Сайт не распространяет и не хранит электронные версии произведений, а занимается лишь лишь предоставлением доступа к создаваемому пользователями каталогу ссылок на торрент-файлы, которые содержат только списки хеш-сумм, убедительная просьба с жалобами обращаться напрямую к пользователю. Файлы для обмена на трекере предоставлены пользователями сайта, и администрация не несёт ответственности за их содержание. Просьба не заливать файлы, защищенные авторскими правами, а также файлы нелегального содержания!

    [Профиль] [ЛС]
    Показать сообщения:    
    Ответить на тему

    Текущее время: Сегодня, в 02:38

    Часовой пояс: GMT + 2



    Вы не можете начинать темы
    Вы не можете отвечать на сообщения
    Вы не можете редактировать свои сообщения
    Вы не можете удалять свои сообщения
    Вы не можете голосовать в опросах
    Вы не можете прикреплять файлы к сообщениям
    Вы не можете скачивать файлы