BitTorrentTracker PerecTracker.org
BitTorrentTracker PerecTracker.org
    
Регистрация  ·  Вход
 
 · 
Забыли пароль?

  • Грязная игра / Play Dirty (Андре Де Тот / André De Toth) [1969, Великобритания, Драма, приключения, военный, BDRip] MVO (НТВ+) + AVO (Рябов)

    Ответить на тему
     
    Автор Сообщение

    Columb

    Создавать темы 15-Авг-2014 12:21

           

    [Цитировать]

    Грязная игра / Play Dirty-Год выпуска: 1969
    Выпущено: Великобритания / Lowndes Productions Limited
    Жанр: драма, приключения, военный
    Продолжительность: 01:58:16
    Перевод (1): Профессиональный (многоголосый закадровый) НТВ+
    Перевод (2): Авторский (одноголосый закадровый) Сергей Рябов
    Cубтитры: нет-Режиссер:
    Андре Де Тот / André De Toth-В ролях:
    Майкл Кейн, Найджел Девенпорт, Найджел Грин, Гарри Эндрюс, Патрик Джордан, Дэниэл Пилон, Martin Burland, George McKeenan, Bridget Espeet, Бернард Арчард-Описание:
    Разгар Второй Мировой Войны. Северная Африка. Под командованием полковника английской армии Мастерса находится не совсем обычный отряд — все его члены бывшие убийцы и террористы, собранные по тюрьмам всего средиземноморья. Бригадный генерал Блор, в чьем подчинении находится Мастерс, хочет распустить отряд. Мастерс решает использовать последний шанс — операцию в глубоком тылу противника. Его подчиненные должны углубиться на территорию, контролируемую немцами, почти на 400 миль и уничтожить склад горючего, предназначенный для снабжения танковой армии Роммеля.-| IMDB | КиноПоиск |-Качество: BDRip [BDREMUX_HDTRACKER]
    Формат: AVI
    Видео: 720x304 (2.37:1), 23.976 fps, XviD build 73 ~1371 kbps avg, 0.26 bit/pixel
    Аудио #1: 48 kHz, AC3 Dolby Digital, 2/0 (L,R) ch, ~192.00 kbps avg (MVO)
    Аудио #2: 48 kHz, AC3 Dolby Digital, 2/0 (L,R) ch, ~192.00 kbps avg (AVO)
    -

    Скриншоты

    MediaInfo

    General
    Complete name                            : D:\Gryaznaya_igra_1969_BDRip_by_Dalemake.avi
    Format                                   : AVI
    Format/Info                              : Audio Video Interleave
    File size                                : 1.46 GiB
    Duration                                 : 1h 58mn
    Overall bit rate                         : 1 770 Kbps
    Writing application                      : VirtualDubMod 1.5.10.3 | www.virtualdub-fr.org || (build 2550/release)
    Writing library                          : VirtualDubMod build 2550/release
    Video
    ID                                       : 0
    Format                                   : MPEG-4 Visual
    Format profile                           : Advanced Simple@L5
    Format settings, BVOP                    : 1
    Format settings, QPel                    : No
    Format settings, GMC                     : No warppoints
    Format settings, Matrix                  : Custom
    Codec ID                                 : XVID
    Codec ID/Hint                            : XviD
    Duration                                 : 1h 58mn
    Bit rate                                 : 1 371 Kbps
    Width                                    : 720 pixels
    Height                                   : 304 pixels
    Display aspect ratio                     : 2.35:1
    Frame rate                               : 23.976 fps
    Color space                              : YUV
    Chroma subsampling                       : 4:2:0
    Bit depth                                : 8 bits
    Scan type                                : Progressive
    Compression mode                         : Lossy
    Bits/(Pixel*Frame)                       : 0.261
    Stream size                              : 1.13 GiB (77%)
    Writing library                          : XviD 73
    Audio #1
    ID                                       : 1
    Format                                   : AC-3
    Format/Info                              : Audio Coding 3
    Mode extension                           : CM (complete main)
    Format settings, Endianness              : Big
    Codec ID                                 : 2000
    Duration                                 : 1h 58mn
    Bit rate mode                            : Constant
    Bit rate                                 : 192 Kbps
    Channel(s)                               : 2 channels
    Channel positions                        : Front: L R
    Sampling rate                            : 48.0 KHz
    Bit depth                                : 16 bits
    Compression mode                         : Lossy
    Stream size                              : 162 MiB (11%)
    Alignment                                : Split accross interleaves
    Interleave, duration                     : 42 ms (1.00 video frame)
    Interleave, preload duration             : 500 ms
    Audio #2
    ID                                       : 2
    Format                                   : AC-3
    Format/Info                              : Audio Coding 3
    Mode extension                           : CM (complete main)
    Format settings, Endianness              : Big
    Codec ID                                 : 2000
    Duration                                 : 1h 58mn
    Bit rate mode                            : Constant
    Bit rate                                 : 192 Kbps
    Channel(s)                               : 2 channels
    Channel positions                        : Front: L R
    Sampling rate                            : 48.0 KHz
    Bit depth                                : 16 bits
    Compression mode                         : Lossy
    Stream size                              : 162 MiB (11%)
    Alignment                                : Split accross interleaves
    Interleave, duration                     : 42 ms (1.00 video frame)
    Interleave, preload duration             : 500 ms
    -
    Скачать .torrent

    Скачать торрент-файл бесплатно и на максимальной скорости!

    Как скачивать? · Что такое торрент? · Рейтинг и ограничения

    !ВНИМАНИЕ!
    Сайт не распространяет и не хранит электронные версии произведений, а занимается лишь лишь предоставлением доступа к создаваемому пользователями каталогу ссылок на торрент-файлы, которые содержат только списки хеш-сумм, убедительная просьба с жалобами обращаться напрямую к пользователю. Файлы для обмена на трекере предоставлены пользователями сайта, и администрация не несёт ответственности за их содержание. Просьба не заливать файлы, защищенные авторскими правами, а также файлы нелегального содержания!

    [Профиль] [ЛС]
    Показать сообщения:    
    Ответить на тему

    Текущее время: Сегодня, в 04:21

    Часовой пояс: GMT + 2



    Вы не можете начинать темы
    Вы не можете отвечать на сообщения
    Вы не можете редактировать свои сообщения
    Вы не можете удалять свои сообщения
    Вы не можете голосовать в опросах
    Вы не можете прикреплять файлы к сообщениям
    Вы не можете скачивать файлы