BitTorrentTracker PerecTracker.org
BitTorrentTracker PerecTracker.org
    
Регистрация  ·  Вход
 
 · 
Забыли пароль?

  • Умножающий печаль / Серии: 1-12 из 12 (Олег Фесенко, Владимир Сверба) [2005, Боевик, криминальная драма, DVDRip]

    Ответить на тему
     
    Автор Сообщение

    Columb

    Создавать темы 15-Авг-2014 12:07

           

    [Цитировать]

    Умножающий печаль
    Год выпуска: 2005
    Производство: кинокомпания "Протел", СТС
    Жанр: Боевик, криминальная драма
    Продолжительность: 6 фильмов ( по 2 серии ) x ~ 01:31:40
    Режиссёр: Олег Фесенко, Владимир Сверба
    Сценарий: Георгий Вайнер, Аркадий Казанцев
    В ролях: Илья Шакунов, Алексей Макаров, Анатолий Белый, Евгения Крюкова, Станислав Любшин, Анатолий Дзиваев, Павел Меленчук, Василий Фролов, Алексей Агрызков, Иван Ролдугин и др.
    Описание: Верный Конь, Хитрый Пес, Бойкий Кот - так они называли друг друга с детства. Они - это офицер Интерпола Сергей Ордынцев, "олигарх" Александр Серебровский и Константин Бойко - олимпийский чемпион по биатлону. Когда-то трое одноклассников играли в индейцев и думали, что их дружба на всю жизнь. Потом на волне перестройки они вместе учились делать деньги. Скоро выяснилось, что деловые способности Ордынцева равны нулю, Бойко склонен к отчаянному авантюризму, а вот Серебровский - настоящий финансовый гений. И вот теперь Бойко хочет убить Серебровского, который увел у него любимую женщину, украл деньги, а самого Бойко упрятал за решетку. Серебровский вызывает из Франции Ордынцева, чтобы Верный Конь помешал Бойкому Коту отомстить - хотя бы во имя их былой дружбы...
    Доп. информация:
    релиз -
    Сэмпл: http://multi-up.com/785372
    Качество: DVDRip
    Формат: AVI
    Видео кодек: XviD
    Аудио кодек: AC3
    Видео: 688x384 (1.79:1), 25 fps, XviD build 65 ~1799 kbps avg, 0.27 bit/pixel
    Аудио: 48 kHz, AC3 Dolby Digital, 3/2 (L,C,R,l,r) + LFE ch, ~448.00 kbps avg

    MI

    Умножающий печаль.DVDRip-SVAT\Умножающий печаль.01-02.DVDRip-SVAT.avi
    Format : AVI
    Format/Info : Audio Video Interleave
    File size : 1.44 GiB
    Duration : 1h 31mn
    Overall bit rate : 2 257 Kbps
    Writing application : VirtualDubMod 1.5.10.1 Рус от Stvens Inc.™ www.stvens.amillo.net (build 2439/release)
    Writing library : VirtualDubMod build 2439/release
    Video
    ID : 0
    Format : MPEG-4 Visual
    Format profile : Advanced Simple@L5
    Format settings, BVOP : 2
    Format settings, QPel : No
    Format settings, GMC : No warppoints
    Format settings, Matrix : Custom
    Codec ID : XVID
    Codec ID/Hint : XviD
    Duration : 1h 31mn
    Bit rate : 1 799 Kbps
    Width : 688 pixels
    Height : 384 pixels
    Display aspect ratio : 16:9
    Frame rate : 25.000 fps
    Color space : YUV
    Chroma subsampling : 4:2:0
    Bit depth : 8 bits
    Scan type : Progressive
    Compression mode : Lossy
    Bits/(Pixel*Frame) : 0.272
    Stream size : 1.15 GiB (80%)
    Writing library : XviD 65
    Audio
    ID : 1
    Format : AC-3
    Format/Info : Audio Coding 3
    Mode extension : CM (complete main)
    Format settings, Endianness : Big
    Codec ID : 2000
    Duration : 1h 31mn
    Bit rate mode : Constant
    Bit rate : 448 Kbps
    Channel(s) : 6 channels
    Channel positions : Front: L C R, Side: L R, LFE
    Sampling rate : 48.0 KHz
    Bit depth : 16 bits
    Compression mode : Lossy
    Delay relative to video : 2s 0ms
    Stream size : 293 MiB (20%)
    Alignment : Split accross interleaves
    Interleave, duration : 40 ms (1.00 video frame)
    Interleave, preload duration : 500 ms

    Скриншоты

    Скачать .torrent

    Скачать торрент-файл бесплатно и на максимальной скорости!

    Как скачивать? · Что такое торрент? · Рейтинг и ограничения

    !ВНИМАНИЕ!
    Сайт не распространяет и не хранит электронные версии произведений, а занимается лишь лишь предоставлением доступа к создаваемому пользователями каталогу ссылок на торрент-файлы, которые содержат только списки хеш-сумм, убедительная просьба с жалобами обращаться напрямую к пользователю. Файлы для обмена на трекере предоставлены пользователями сайта, и администрация не несёт ответственности за их содержание. Просьба не заливать файлы, защищенные авторскими правами, а также файлы нелегального содержания!

    [Профиль] [ЛС]
    Показать сообщения:    
    Ответить на тему

    Текущее время: Сегодня, в 22:30

    Часовой пояс: GMT + 2



    Вы не можете начинать темы
    Вы не можете отвечать на сообщения
    Вы не можете редактировать свои сообщения
    Вы не можете удалять свои сообщения
    Вы не можете голосовать в опросах
    Вы не можете прикреплять файлы к сообщениям
    Вы не можете скачивать файлы