Register  ·  Log in
Forgot password?

  • Ярость вендиго / Frostbiter: Wrath of the Wendigo (Том Чейни / Tom Chaney) [1995, США, комедия, ужасы, DVDRip] VO (Хэм)

    Reply to topic
    Author Message


    Post 15-Aug-2014 12:52



    Ярость вендиго / Frostbiter: Wrath of the Wendigo
    Страна: США
    Жанр: комедия, ужасы
    Год выпуска: 1995
    Продолжительность: 1:23:09
    Перевод: Одноголосый закадровый (Хэм) ПЕРЕОЗВУЧЕН
    Cубтитры: нет
    Режиссер: Том Чейни / Tom Chaney
    В ролях: Рон Эштон, Лори Бейкер, Патрик Батлер, Девлин Бертон, Майк Мисслер
    Описание: На открытие зимнего охотничьего сезона на заснеженный островок прибывают двое охотников. Забравшись по пьяни в неположенное место, они встречают старого стража, который охраняет священный круг, ограждающий человечество от демона Вендиго. Стража убивают, круг разрушается, и демон оказывается на свободе. Но страж успевает прислать на остров новую защитницу, которая должна остановить Вендиго, прежде чем тот обретёт былую силу.
    Доп. информация: / , Ragedevil - благодарность за рип!
    Аудиодорога со старой озвучкой (кому понадобится) качается тут.
    Качество видео: DVDRip
    Формат видео: AVI
    Видео: XVID, 720x544, 4:3, 23,976 fps, 2150 kbps
    Аудио: MP3, 44,1 kHz, 160 kpbs, 2.0


    Complete name : D:\Movs\Frostbiter.1995.Rus.avi
    Format : AVI
    Format/Info : Audio Video Interleave
    File size : 1.35 GiB
    Duration : 1h 23mn
    Overall bit rate : 2 319 Kbps
    Writing application : VirtualDubMod | || (build 2550/release)
    Writing library : VirtualDub build 32817/release
    ID : 0
    Format : MPEG-4 Visual
    Format profile : Advanced Simple@L5
    Format settings, BVOP : 2
    Format settings, QPel : No
    Format settings, GMC : No warppoints
    Format settings, Matrix : Default (MPEG)
    Codec ID : XVID
    Codec ID/Hint : XviD
    Duration : 1h 23mn
    Bit rate : 2 150 Kbps
    Width : 720 pixels
    Height : 544 pixels
    Display aspect ratio : 4:3
    Frame rate : 23.976 fps
    Color space : YUV
    Chroma subsampling : 4:2:0
    Bit depth : 8 bits
    Scan type : Progressive
    Compression mode : Lossy
    Bits/(Pixel*Frame) : 0.229
    Stream size : 1.25 GiB (93%)
    Writing library : XviD 1.2.1 (UTC 2008-12-04)
    ID : 1
    Format : MPEG Audio
    Format version : Version 1
    Format profile : Layer 3
    Mode : Joint stereo
    Codec ID : 55
    Codec ID/Hint : MP3
    Duration : 1h 23mn
    Bit rate mode : Constant
    Bit rate : 160 Kbps
    Channel(s) : 2 channels
    Sampling rate : 44.1 KHz
    Compression mode : Lossy
    Stream size : 95.2 MiB (7%)
    Alignment : Split accross interleaves
    Interleave, duration : 42 ms (1.00 video frame)
    Interleave, preload duration : 500 ms

    Скриншот c названием фильма


    Download .torrent

    Download free and at maximum speed!

    How to Download? · What is a torrent? · Ratings and Limitations

    The site does not extend and does not store electronic(digital) versions of products, and only gives access to a reference catalogue created by users on torrent-files which contain only lists of the hash-sums, the earnest entreaty, with complaints(abuse) to access directly to the user. Files for an exchange on tracker are given by users of a site, and the administration does not bear the responsibility for their maintenance. The request to not fill in the files protected by copyrights, and also files of the illegal maintenance!

    [Profile] [PM]
    Display posts from previous:    
    Reply to topic

    The time now is: Today 07:25

    All times are GMT + 3 Hours

    You cannot post new topics in this forum
    You cannot reply to topics in this forum
    You cannot edit your posts in this forum
    You cannot delete your posts in this forum
    You cannot vote in polls in this forum
    You cannot attach files in this forum
    You cannot download files in this forum