BitTorrentTracker PerecTracker.org
BitTorrentTracker PerecTracker.org
    
Регистрация  ·  Вход
 
 · 
Забыли пароль?

  • Ярость вендиго / Frostbiter: Wrath of the Wendigo (Том Чейни / Tom Chaney) [1995, США, комедия, ужасы, DVDRip] VO (Хэм)

    Ответить на тему
     
    Автор Сообщение

    Columb

    Создавать темы 15-Авг-2014 11:52

           

    [Цитировать]

    Ярость вендиго / Frostbiter: Wrath of the Wendigo
    Страна: США
    Жанр: комедия, ужасы
    Год выпуска: 1995
    Продолжительность: 1:23:09
    Перевод: Одноголосый закадровый (Хэм) ПЕРЕОЗВУЧЕН
    Cубтитры: нет
    Режиссер: Том Чейни / Tom Chaney
    В ролях: Рон Эштон, Лори Бейкер, Патрик Батлер, Девлин Бертон, Майк Мисслер
    Описание: На открытие зимнего охотничьего сезона на заснеженный островок прибывают двое охотников. Забравшись по пьяни в неположенное место, они встречают старого стража, который охраняет священный круг, ограждающий человечество от демона Вендиго. Стража убивают, круг разрушается, и демон оказывается на свободе. Но страж успевает прислать на остров новую защитницу, которая должна остановить Вендиго, прежде чем тот обретёт былую силу.
    Доп. информация: / , Ragedevil - благодарность за рип!
    Аудиодорога со старой озвучкой (кому понадобится) качается тут.
    Качество видео: DVDRip
    Формат видео: AVI
    Видео: XVID, 720x544, 4:3, 23,976 fps, 2150 kbps
    Аудио: MP3, 44,1 kHz, 160 kpbs, 2.0

    MediaInfo

    General
    Complete name : D:\Movs\Frostbiter.1995.Rus.avi
    Format : AVI
    Format/Info : Audio Video Interleave
    File size : 1.35 GiB
    Duration : 1h 23mn
    Overall bit rate : 2 319 Kbps
    Writing application : VirtualDubMod 1.5.10.3 | www.virtualdub-fr.org || (build 2550/release)
    Writing library : VirtualDub build 32817/release
    Video
    ID : 0
    Format : MPEG-4 Visual
    Format profile : Advanced Simple@L5
    Format settings, BVOP : 2
    Format settings, QPel : No
    Format settings, GMC : No warppoints
    Format settings, Matrix : Default (MPEG)
    Codec ID : XVID
    Codec ID/Hint : XviD
    Duration : 1h 23mn
    Bit rate : 2 150 Kbps
    Width : 720 pixels
    Height : 544 pixels
    Display aspect ratio : 4:3
    Frame rate : 23.976 fps
    Color space : YUV
    Chroma subsampling : 4:2:0
    Bit depth : 8 bits
    Scan type : Progressive
    Compression mode : Lossy
    Bits/(Pixel*Frame) : 0.229
    Stream size : 1.25 GiB (93%)
    Writing library : XviD 1.2.1 (UTC 2008-12-04)
    Audio
    ID : 1
    Format : MPEG Audio
    Format version : Version 1
    Format profile : Layer 3
    Mode : Joint stereo
    Codec ID : 55
    Codec ID/Hint : MP3
    Duration : 1h 23mn
    Bit rate mode : Constant
    Bit rate : 160 Kbps
    Channel(s) : 2 channels
    Sampling rate : 44.1 KHz
    Compression mode : Lossy
    Stream size : 95.2 MiB (7%)
    Alignment : Split accross interleaves
    Interleave, duration : 42 ms (1.00 video frame)
    Interleave, preload duration : 500 ms

    Скриншот c названием фильма

    Скриншоты

    Скачать .torrent

    Скачать торрент-файл бесплатно и на максимальной скорости!

    Как скачивать? · Что такое торрент? · Рейтинг и ограничения

    !ВНИМАНИЕ!
    Сайт не распространяет и не хранит электронные версии произведений, а занимается лишь лишь предоставлением доступа к создаваемому пользователями каталогу ссылок на торрент-файлы, которые содержат только списки хеш-сумм, убедительная просьба с жалобами обращаться напрямую к пользователю. Файлы для обмена на трекере предоставлены пользователями сайта, и администрация не несёт ответственности за их содержание. Просьба не заливать файлы, защищенные авторскими правами, а также файлы нелегального содержания!

    [Профиль] [ЛС]
    Показать сообщения:    
    Ответить на тему

    Текущее время: Сегодня, в 00:05

    Часовой пояс: GMT + 2



    Вы не можете начинать темы
    Вы не можете отвечать на сообщения
    Вы не можете редактировать свои сообщения
    Вы не можете удалять свои сообщения
    Вы не можете голосовать в опросах
    Вы не можете прикреплять файлы к сообщениям
    Вы не можете скачивать файлы