Register  ·  Log in
Forgot password?

  • Патни Своуп / Putney Swope (Роберт Дауни Ст. / Robert Downey Sr.) [1969, США, комедия, сатира, DVDRip] VO acolith

    Reply to topic
    Author Message


    Post 14-Aug-2014 12:16



    Патни Своуп / Putney Swope
    Страна: США
    Жанр: комедия, сатира
    Год выпуска: 1969
    Продолжительность: 01:24:56
    Перевод: leoferre24
    Одноголосое закадровое озвучкивоние: acolith
    Cубтитры: нет
    Режиссер: Роберт Дауни Ст. / Robert Downey Sr.
    В ролях: Арнольд Джонсон, Стэн Готтлиб, Аллен Гарфилд, Джо Мэдден, Дэвид Кирк, Бадди Батлер, Джо Филдс, Роберт Статс, Мел Брукс, Луиза Хит, Антонио Фаргас, Энтони Чисхолм, Джордж Морган, Аллен Арбус, Леопольдо Мандевилль, Лоуренс Вульф, Франклин Скотт, Шелли Плимптон, Эльжбета Чижевская, Питер Мэлоуни, Перри Гевиртц
    Описание: Смешной фильм о чернокожем чудаке, который становится владельцем рекламной фирмы на Мэдисон-авеню. Это шутливая пародия на американский стиль жизни
    Качество видео: DVDRip
    Формат видео: AVI
    Видео: 640x352, 16:9, 23.976 fps, XviD MPEG-4, 1074 kbps avg
    Аудио: 48 kHz, AC3 Dolby Digital, 2/0 (L,R) ch, ~192.00 kbps avg


    Complete name : H:\PUTNEY_SWOPE\PUTNEY_SWOPE.avi
    Format : AVI
    Format/Info : Audio Video Interleave
    File size : 776 MiB
    Duration : 1h 25mn
    Overall bit rate : 1 276 Kbps
    Writing application : VirtualDubMod (build 2540/release)
    Writing library : VirtualDubMod build 2540/release
    ID : 0
    Format : MPEG-4 Visual
    Format profile : Advanced Simple@L5
    Format settings, BVOP : 2
    Format settings, QPel : No
    Format settings, GMC : No warppoints
    Format settings, Matrix : Default (H.263)
    Muxing mode : Packed bitstream
    Codec ID : XVID
    Codec ID/Hint : XviD
    Duration : 1h 25mn
    Bit rate : 1 075 Kbps
    Width : 640 pixels
    Height : 352 pixels
    Display aspect ratio : 16:9
    Frame rate : 23.976 fps
    Color space : YUV
    Chroma subsampling : 4:2:0
    Bit depth : 8 bits
    Scan type : Progressive
    Compression mode : Lossy
    Bits/(Pixel*Frame) : 0.199
    Stream size : 654 MiB (84%)
    Writing library : XviD 64
    ID : 1
    Format : AC-3
    Format/Info : Audio Coding 3
    Mode extension : CM (complete main)
    Codec ID : 2000
    Duration : 1h 25mn
    Bit rate mode : Constant
    Bit rate : 192 Kbps
    Channel(s) : 2 channels
    Channel positions : Front: L R
    Sampling rate : 48.0 KHz
    Bit depth : 16 bits
    Compression mode : Lossy
    Stream size : 117 MiB (15%)
    Alignment : Split accross interleaves
    Interleave, duration : 42 ms (1.00 video frame)
    Interleave, preload duration : 500 ms

    Скриншот c названием фильма


    Download .torrent

    Download free and at maximum speed!

    How to Download? · What is a torrent? · Ratings and Limitations

    The site does not extend and does not store electronic(digital) versions of products, and only gives access to a reference catalogue created by users on torrent-files which contain only lists of the hash-sums, the earnest entreaty, with complaints(abuse) to access directly to the user. Files for an exchange on tracker are given by users of a site, and the administration does not bear the responsibility for their maintenance. The request to not fill in the files protected by copyrights, and also files of the illegal maintenance!

    [Profile] [PM]
    Display posts from previous:    
    Reply to topic

    The time now is: Today 23:50

    All times are GMT + 3 Hours

    You cannot post new topics in this forum
    You cannot reply to topics in this forum
    You cannot edit your posts in this forum
    You cannot delete your posts in this forum
    You cannot vote in polls in this forum
    You cannot attach files in this forum
    You cannot download files in this forum