BitTorrentTracker PerecTracker.org
BitTorrentTracker PerecTracker.org
    
Регистрация  ·  Вход
 
 · 
Забыли пароль?

  • Форс-мажоры / Костюмы в законе / Suits / Сезон: 4 / Серии: 1-8 из 16 (Кевин Брэй, Джон Скотт, Майкл Смит) [2014, Драма, WEB-DL 1080p] DVO (NewStudio) + Original + Subs (Rus, Eng)

    Ответить на тему
     
    Автор Сообщение

    Columb

    Создавать темы 14-Авг-2014 11:00

           

    [Цитировать]

    Форс-мажоры / Костюмы в законе / Suits
    Год выпуска: 2014
    Страна: США
    Жанр: Драма
    Продолжительность: 00:43:00
    Перевод: Профессиональный (двухголосый закадровый) NewStudio
    Режиссёр: Кевин Брэй, Джон Скотт, Майкл Смит
    В ролях: Гэбриел Махт, Патрик Адамс, Рик Хоффман, Меган Маркл, Сара Рафферти, Джина Торрес, Макс Топплин, Дэвид Костабайл, Ванесса Рэй, Ребекка Шалл
    Описание:
    Самоуверенный и гордый адвокат, который является еще и одним из лучших Нью-Йорка, Харви Спектр принимает на собеседование новую кандидатуру- Майка Росса. Новичок приглянулся работодателю своей неординарностью и харизмой, поэтому получает работу в одной из лидирующих адвокатских контор. Из него в дальнейшем получается успешный и толковый юрист.
    Ссылка на предыдущие и альтернативные раздачи: http://perectracker.org/tracker.php?f=189,2366&nm=Suits+-life/
    Сэмпл: http://multi-up.com/992196
    Качество: WEB-DL 1080p
    Контейнер: MKV
    Видео: H.264, 1920x1080 [16:9], 23.976 fps, ~4950 kbps, 0.104 bit/pixel
    Аудио: (RUS) AC3, 6 ch, 48 kHz, 384 kbps | Профессиональный (двухголосый закадровый) NewStudio
    Аудио: (ENG) AC3, 6 ch, 48 kHz, 384 kbps | Original
    Субтитры: встроенные - русские (To4kaTranslate), английские

    Список серий

    1. One-Two-Three Go
    2. Breakfast, Lunch and Dinner
    3. Two in the Knees
    4. Leveraged
    5. Pound of Flesh
    6. Litt the Hell Up
    7. We're Done
    8. Exposure

    MediaInfo

    Общее
    Уникальный идентификатор : 249838420473053843881969753592027618659 (0xBBF5212888A591A0BE4AA7F0297B1D63)
    Полное имя : ***\Suits (Season 4, WEB-DL 1080p)\Suits.S04E01.1080p.WEB-DL.DD5.1.NewStudio.mkv
    Формат : Matroska
    Версия формата : Version 4 / Version 2
    Размер файла : 1,82 Гбайт
    Продолжительность : 43 м.
    Общий поток : 6056 Кбит/сек
    Дата кодирования : UTC 2014-08-13 14:21:19
    Программа кодирования : mkvmerge v7.1.0 ('Good Love') 64bit built on Jul 27 2014 13:06:55
    Библиотека кодирования : libebml v1.3.0 + libmatroska v1.4.1
    _STATISTICS_WRITING_APP : mkvmerge v7.1.0 ('Good Love') 64bit built on Jul 27 2014 13:06:55
    _STATISTICS_WRITING_DATE_UTC : 2014-08-13 14:21:19
    _STATISTICS_TAGS : BPS DURATION NUMBER_OF_FRAMES NUMBER_OF_BYTES
    DURATION : 00:42:40.423000000
    NUMBER_OF_FRAMES : 975
    NUMBER_OF_BYTES : 34514
    Видео
    Идентификатор : 1
    Формат : AVC
    Формат/Информация : Advanced Video Codec
    Профиль формата : High@L4.0
    Параметр CABAC формата : Да
    Параметр ReFrames формата : 4 кадра
    Идентификатор кодека : V_MPEG4/ISO/AVC
    Продолжительность : 42 м.
    Битрейт : 4938 Кбит/сек
    Ширина : 1920 пикселей
    Высота : 1080 пикселей
    Соотношение сторон : 16:9
    Режим частоты кадров : Постоянный
    Частота кадров : 23,976 кадра/сек
    Цветовое пространство : YUV
    Субдискретизация насыщенности : 4:2:0
    Битовая глубина : 8 бит
    Тип развёртки : Прогрессивная
    Бит/(Пиксели*Кадры) : 0.099
    Размер потока : 1,48 Гбайт (85%)
    Язык : English
    Default : Да
    Forced : Нет
    Основные цвета : BT.709
    Характеристики трансфера : BT.709
    Коэффициенты матрицы : BT.709
    Аудио #1
    Идентификатор : 2
    Формат : AC-3
    Формат/Информация : Audio Coding 3
    Расширение режима : CM (complete main)
    Параметр Endianness формата : Big
    Идентификатор кодека : A_AC3
    Продолжительность : 42 м.
    Вид битрейта : Постоянный
    Битрейт : 384 Кбит/сек
    Каналы : 6 каналов
    Расположение каналов : Front: L C R, Side: L R, LFE
    Частота : 48,0 КГц
    Битовая глубина : 16 бит
    Метод сжатия : С потерями
    Размер потока : 118 Мбайт (7%)
    Заголовок : NewStudio
    Язык : Russian
    Default : Да
    Forced : Нет
    Аудио #2
    Идентификатор : 3
    Формат : AC-3
    Формат/Информация : Audio Coding 3
    Расширение режима : CM (complete main)
    Параметр Endianness формата : Big
    Идентификатор кодека : A_AC3
    Продолжительность : 42 м.
    Вид битрейта : Постоянный
    Битрейт : 384 Кбит/сек
    Каналы : 6 каналов
    Расположение каналов : Front: L C R, Side: L R, LFE
    Частота : 48,0 КГц
    Битовая глубина : 16 бит
    Метод сжатия : С потерями
    Размер потока : 118 Мбайт (7%)
    Заголовок : Original
    Язык : English
    Default : Нет
    Forced : Нет
    Текст #1
    Идентификатор : 5
    Формат : UTF-8
    Идентификатор кодека : S_TEXT/UTF8
    Идентификатор кодека/Информация : UTF-8 Plain Text
    Язык : Russian
    Default : Нет
    Forced : Нет
    Текст #2
    Идентификатор : 4
    Формат : UTF-8
    Идентификатор кодека : S_TEXT/UTF8
    Идентификатор кодека/Информация : UTF-8 Plain Text
    Язык : English
    Default : Нет
    Forced : Нет

    Скриншоты



    Внимание! Раздача ведётся путём добавления новых серий!

    Внимание! Раздача ведётся путём добавления новых серий; при каждом добавлении создётся новый торрент. Чтобы начать докачку новой серии, пользователям необходимо сделать следующее:
    (1) остановить скачивание,
    (2) удалить старый торрент у себя из клиента (старые серии удалять не надо),
    (3) скачать новый торрент и запустить его у себя в клиенте вместо старого, при этом указать клиенту путь в старую папку куда и должно происходить скачивание новых серий.
    Ваш клиент при этом должен произвести хеширование (проверку) старой папки (если не производит сам - помогите ему сделать это), и будет докачивать только те серии которых у вас ещё нет. Старые серии при этом не удаляются, а продолжают раздаваться!
    Eсли вы уже удалили старые серии, то предотвратить повторную закачку старых серий можно, отжав галочку в соответсвующих местах при запуске нового торрента. По возможности, желательно не удалять старые серии как можно дольше чтобы релизёр не столько продолжал раздавать старые серии, а смог сконцентрироваться на новых.
    Скачать .torrent

    Скачать торрент-файл бесплатно и на максимальной скорости!

    Как скачивать? · Что такое торрент? · Рейтинг и ограничения

    !ВНИМАНИЕ!
    Сайт не распространяет и не хранит электронные версии произведений, а занимается лишь лишь предоставлением доступа к создаваемому пользователями каталогу ссылок на торрент-файлы, которые содержат только списки хеш-сумм, убедительная просьба с жалобами обращаться напрямую к пользователю. Файлы для обмена на трекере предоставлены пользователями сайта, и администрация не несёт ответственности за их содержание. Просьба не заливать файлы, защищенные авторскими правами, а также файлы нелегального содержания!

    [Профиль] [ЛС]
    Показать сообщения:    
    Ответить на тему

    Текущее время: Сегодня, в 06:04

    Часовой пояс: GMT + 2



    Вы не можете начинать темы
    Вы не можете отвечать на сообщения
    Вы не можете редактировать свои сообщения
    Вы не можете удалять свои сообщения
    Вы не можете голосовать в опросах
    Вы не можете прикреплять файлы к сообщениям
    Вы не можете скачивать файлы