Register  ·  Log in
Forgot password?

  • Волк / El Lobo (Мигель Куртуа / Miguel Courtois) [2004, Испания, Триллер, криминал, DVDRip] DVO

    Reply to topic
    Author Message


    Post 14-Aug-2014 11:45



    Волк / El Lobo-Страна: Испания
    Жанр: Триллер, криминал
    Год выпуска: 2004
    Продолжительность: 01:59:15-Перевод: Профессиональный (двухголосый закадровый)
    Cубтитры: нет-Режиссер: Мигель Куртуа / Miguel Courtois-В ролях: Эдуардо Норьега, Хосе Коронадо, Мелани Дотей, Сильвия Абаскаль, Сантьяго Рамос, Патрик Брюэль, Хорхе Санс, Мануэль Сарсо, Фернандо Кайо, Хуан Фернандес-Описание: Испания, 70-е годы. Спецслужбы арестовывают Хосе за связь с боевиками из террористической организации ЭТА и вынуждают его стать их лазутчиком в логове могущественной группировки боевиков. Отныне его прозвище — «Волк», его задача — заслужив доверие хладнокровных убийц и бывалых подпольщиков, в одиночку проникнуть в круг главарей. Но когда неожиданные события меняют планы властей, Волк тоже становится их мишенью. Теперь его враги с обеих сторон…-Sample | IMDB | КиноПоиск-Тип релиза: DVDRip
    Формат видео: AVI-Видео: 704x304 (2.32:1), 25 fps, XviD build 50, 1366 kbps avg, 0.26 bit/pixel
    Аудио: 48 kHz, AC3 Dolby Digital, 3/2 (L,C,R,l,r) + LFE ch, 384.00 kbps avg [Russian_DVO]-


    Complete name : D:\Мои релизы\El Lobo_RG_All_Films.avi
    Format : AVI
    Format/Info : Audio Video Interleave
    File size : 1.47 GiB
    Duration : 1h 59mn
    Overall bit rate : 1 761 Kbps
    Writing application : VirtualDubMod | || (build 2550/release)
    Writing library : VirtualDubMod build 2550/release
    ID : 0
    Format : MPEG-4 Visual
    Format profile : Advanced Simple@L5
    Format settings, BVOP : Yes
    Format settings, QPel : No
    Format settings, GMC : No warppoints
    Format settings, Matrix : Custom
    Codec ID : XVID
    Codec ID/Hint : XviD
    Duration : 1h 59mn
    Bit rate : 1 367 Kbps
    Width : 704 pixels
    Height : 304 pixels
    Display aspect ratio : 2.35:1
    Frame rate : 25.000 fps
    Color space : YUV
    Chroma subsampling : 4:2:0
    Bit depth : 8 bits
    Scan type : Progressive
    Compression mode : Lossy
    Bits/(Pixel*Frame) : 0.255
    Stream size : 1.14 GiB (78%)
    Writing library : XviD 1.2.1 (UTC 2008-12-04)
    ID : 1
    Format : AC-3
    Format/Info : Audio Coding 3
    Mode extension : CM (complete main)
    Codec ID : 2000
    Duration : 1h 59mn
    Bit rate mode : Constant
    Bit rate : 384 Kbps
    Channel(s) : 6 channels
    Channel positions : Front: L C R, Side: L R, LFE
    Sampling rate : 48.0 KHz
    Bit depth : 16 bits
    Compression mode : Lossy
    Stream size : 328 MiB (22%)
    Alignment : Split accross interleaves
    Interleave, duration : 40 ms (1.00 video frame)
    Interleave, preload duration : 500 ms


    Download .torrent

    Download free and at maximum speed!

    How to Download? · What is a torrent? · Ratings and Limitations

    The site does not extend and does not store electronic(digital) versions of products, and only gives access to a reference catalogue created by users on torrent-files which contain only lists of the hash-sums, the earnest entreaty, with complaints(abuse) to access directly to the user. Files for an exchange on tracker are given by users of a site, and the administration does not bear the responsibility for their maintenance. The request to not fill in the files protected by copyrights, and also files of the illegal maintenance!

    [Profile] [PM]
    Display posts from previous:    
    Reply to topic

    The time now is: Today 06:35

    All times are GMT + 3 Hours

    You cannot post new topics in this forum
    You cannot reply to topics in this forum
    You cannot edit your posts in this forum
    You cannot delete your posts in this forum
    You cannot vote in polls in this forum
    You cannot attach files in this forum
    You cannot download files in this forum