BitTorrentTracker PerecTracker.org
BitTorrentTracker PerecTracker.org
    
Регистрация  ·  Вход
 
 · 
Забыли пароль?

  • Прекрасные создания / Beautiful Creatures (Ричард ЛаГравенес / Richard LaGravenese) [2013 г., США, фэнтези, драма, мелодрама, BDRip-AVC] Dub + Original Eng + Sub (Rus, Eng)

    Ответить на тему
     
    Автор Сообщение

    Columb

    Создавать темы 13-Авг-2014 23:30

           

    [Цитировать]

    -Прекрасные создания / Beautiful Creatures«Раскроются тёмные тайны»Страна: США
    Студия: Alcon Entertainment, Warner Bros. Entertainment
    Жанр: Фэнтези, драма, мелодрама
    Год выпуска: 2013
    Продолжительность: 02:03:45-Перевод: Профессиональный (полное дублирование)
    Оригинальная аудиодорожка: английский
    Cубтитры: русские, английские
    Режиссер: Ричард ЛаГравенес / Richard LaGravenese
    В ролях: Олден Эйренрайк, Элис Энглерт, Джереми Айронс, Виола Дэвис, Эмми Россам, Томас Манн, Эмма Томпсон, Айлин Эткинс, Марго Мартиндейл, Зои Дойч
    Описание: Лена Дюкейн отличается от всех, кого когда-либо видел маленький южный город Гатлин, она борется с собой, пытаясь усмирить свою силу и проклятие, веками преследовавшее ее семью. Но даже в разросшихся садах, в мрачных болотах и на разрушенных могильниках позабытого Юга секрет не будет жить вечно.-
    Сэмпл: скачать-Релиз от -
    Автор рипа: Elheym
    Качество: BDRip-AVC (источник: / Blu-ray Disc / 1080p)
    Контейнер: MKV
    Видео: 1024x426 (2.40:1), 23.976 fps, MPEG-4 AVC, ~2600 kbps avg, 0.249 bit/pixel
    Аудио #1: Русский: АС3, 5.1, 48 kHz, ~384 Кбит/с | Профессиональный (полное дублирование) |
    Аудио #2: Английский: АС3, 5.1, 48 kHz, ~384 Кбит/с | Оригинал |
    Субтитры: Русские (полные: Blu-ray, R2), Английские (полные, полные SDH, полные SDH-Colored)
    Главы: Присутствуют, сохранены оригинальные
    Размер: 2.91 GB

    MediaInfo

    Уникальный идентификатор : 249464388471558736889850873623512892916 (0xBBAD17F4F616694A9296E58A8A8045F4)
    Полное имя : Beautiful.Creatures.2013.DUAL.BDRip-AVC.x264.AC3.-HQCLUB.mkv
    Формат : Matroska
    Версия формата : Version 2
    Размер файла : 2,91 Гбайт
    Продолжительность : 2 ч. 3 м.
    Общий поток : 3369 Кбит/сек
    Дата кодирования : UTC 2014-08-13 05:42:47
    Программа кодирования : mkvmerge v5.2.0 ('I can't explain') built on Dec 18 2011 18:12:03
    Библиотека кодирования : libebml v1.2.3 + libmatroska v1.3.0
    Видео
    Идентификатор : 1
    Формат : AVC
    Формат/Информация : Advanced Video Codec
    Профиль формата : High@L4.1
    Параметр CABAC формата : Да
    Параметр ReFrames формата : 15 кадров
    Идентификатор кодека : V_MPEG4/ISO/AVC
    Продолжительность : 2 ч. 3 м.
    Битрейт : 2600 Кбит/сек
    Ширина : 1024 пикселя
    Высота : 426 пикселей
    Соотношение сторон : 2,40:1
    Режим частоты кадров : Постоянный
    Частота кадров : 23,976 кадра/сек
    Цветовое пространство : YUV
    Субдискретизация насыщенности : 4:2:0
    Битовая глубина : 8 бит
    Тип развёртки : Прогрессивная
    Бит/(Пиксели*Кадры) : 0.249
    Размер потока : 2,19 Гбайт (75%)
    Заголовок : Прекрасные создания / Beautiful Creatures (2013) BDRip-AVC by HQCLUB [Elheym]
    Библиотека кодирования : x264 core 142 r2453 ea0ca51
    Настройки программы : cabac=1 / ref=15 / deblock=1:-3:-2 / analyse=0x3:0x113 / me=umh / subme=11 / psy=1 / psy_rd=1.00:0.00 / mixed_ref=1 / me_range=32 / chroma_me=1 / trellis=2 / 8x8dct=1 / cqm=0 / deadzone=21,11 / fast_pskip=1 / chroma_qp_offset=-4 / threads=6 / lookahead_threads=1 / sliced_threads=0 / nr=0 / decimate=1 / interlaced=0 / bluray_compat=0 / constrained_intra=0 / bframes=12 / b_pyramid=2 / b_adapt=2 / b_bias=0 / direct=3 / weightb=1 / open_gop=0 / weightp=2 / keyint=240 / keyint_min=23 / scenecut=40 / intra_refresh=0 / rc_lookahead=40 / rc=2pass / mbtree=1 / bitrate=2600 / ratetol=1.0 / qcomp=0.60 / qpmin=10 / qpmax=69 / qpstep=4 / cplxblur=20.0 / qblur=0.5 / vbv_maxrate=50000 / vbv_bufsize=62500 / nal_hrd=none / filler=0 / ip_ratio=1.40 / aq=1:0.90
    Язык : English
    Default : Да
    Forced : Нет
    Аудио #1
    Идентификатор : 2
    Формат : AC-3
    Формат/Информация : Audio Coding 3
    Расширение режима : CM (complete main)
    Параметр Endianness формата : Big
    Идентификатор кодека : A_AC3
    Продолжительность : 2 ч. 3 м.
    Вид битрейта : Постоянный
    Битрейт : 384 Кбит/сек
    Каналы : 6 каналов
    Расположение каналов : Front: L C R, Side: L R, LFE
    Частота : 48,0 КГц
    Битовая глубина : 16 бит
    Метод сжатия : С потерями
    Размер потока : 340 Мбайт (11%)
    Заголовок : АС3 5.1 @ 384 kbps - Dub, Blu-Ray
    Язык : Russian
    Default : Нет
    Forced : Нет
    Аудио #2
    Идентификатор : 3
    Формат : AC-3
    Формат/Информация : Audio Coding 3
    Расширение режима : CM (complete main)
    Параметр Endianness формата : Big
    Идентификатор кодека : A_AC3
    Продолжительность : 2 ч. 3 м.
    Вид битрейта : Постоянный
    Битрейт : 384 Кбит/сек
    Каналы : 6 каналов
    Расположение каналов : Front: L C R, Side: L R, LFE
    Частота : 48,0 КГц
    Битовая глубина : 16 бит
    Метод сжатия : С потерями
    Размер потока : 340 Мбайт (11%)
    Заголовок : АС3 5.1 @ 384 kbps - Original
    Язык : English
    Default : Нет
    Forced : Нет
    Текст #1
    Идентификатор : 4
    Формат : UTF-8
    Идентификатор кодека : S_TEXT/UTF8
    Идентификатор кодека/Информация : UTF-8 Plain Text
    Заголовок : Full, Blu-Ray
    Язык : Russian
    Default : Нет
    Forced : Нет
    Текст #2
    Идентификатор : 5
    Формат : UTF-8
    Идентификатор кодека : S_TEXT/UTF8
    Идентификатор кодека/Информация : UTF-8 Plain Text
    Заголовок : Full, R2
    Язык : Russian
    Default : Нет
    Forced : Нет
    Текст #3
    Идентификатор : 6
    Формат : UTF-8
    Идентификатор кодека : S_TEXT/UTF8
    Идентификатор кодека/Информация : UTF-8 Plain Text
    Заголовок : Full
    Язык : English
    Default : Нет
    Forced : Нет
    Текст #4
    Идентификатор : 7
    Формат : UTF-8
    Идентификатор кодека : S_TEXT/UTF8
    Идентификатор кодека/Информация : UTF-8 Plain Text
    Заголовок : Full SDH
    Язык : English
    Default : Нет
    Forced : Нет
    Текст #5
    Идентификатор : 8
    Формат : UTF-8
    Идентификатор кодека : S_TEXT/UTF8
    Идентификатор кодека/Информация : UTF-8 Plain Text
    Заголовок : Full SDH COLORED
    Язык : English
    Default : Нет
    Forced : Нет
    Меню
    00:00:00.000 : :Chapter 01
    00:03:31.002 : :Chapter 02
    00:08:06.235 : :Chapter 03
    00:15:51.700 : :Chapter 04
    00:22:35.479 : :Chapter 05
    00:31:20.420 : :Chapter 06
    00:42:39.765 : :Chapter 07
    00:53:49.309 : :Chapter 08
    01:02:52.393 : :Chapter 09
    01:11:08.722 : :Chapter 10
    01:14:32.384 : :Chapter 11
    01:17:45.285 : :Chapter 12
    01:33:56.464 : :Chapter 13
    01:40:55.799 : :Chapter 14
    01:53:32.472 : :Chapter 15
    01:57:33.588 : :Chapter 16

    x264 log

    x264 [info]: frame I:1446 Avg QP:13.29 size: 93506
    x264 [info]: frame P:36177 Avg QP:15.77 size: 33040
    x264 [info]: frame B:140390 Avg QP:19.05 size: 7702
    x264 [info]: consecutive B-frames: 2.3% 2.6% 4.8% 17.5% 15.3% 35.0% 7.9% 6.1% 2.6% 2.3% 1.0% 2.0% 0.8%
    x264 [info]: ref P L0: 44.8% 8.4% 17.1% 6.7% 5.5% 3.8% 3.5% 1.8% 1.8% 1.3% 1.3% 1.0% 1.1% 0.9% 1.0% 0.1%
    x264 [info]: ref B L0: 70.8% 12.5% 5.5% 2.9% 2.0% 1.6% 1.3% 0.8% 0.7% 0.6% 0.5% 0.4% 0.3% 0.1%
    x264 [info]: ref B L1: 91.9% 8.1%

    Скриншоты

    Скачать .torrent

    Скачать торрент-файл бесплатно и на максимальной скорости!

    Как скачивать? · Что такое торрент? · Рейтинг и ограничения

    !ВНИМАНИЕ!
    Сайт не распространяет и не хранит электронные версии произведений, а занимается лишь лишь предоставлением доступа к создаваемому пользователями каталогу ссылок на торрент-файлы, которые содержат только списки хеш-сумм, убедительная просьба с жалобами обращаться напрямую к пользователю. Файлы для обмена на трекере предоставлены пользователями сайта, и администрация не несёт ответственности за их содержание. Просьба не заливать файлы, защищенные авторскими правами, а также файлы нелегального содержания!

    [Профиль] [ЛС]
    Показать сообщения:    
    Ответить на тему

    Текущее время: Сегодня, в 04:19

    Часовой пояс: GMT + 2



    Вы не можете начинать темы
    Вы не можете отвечать на сообщения
    Вы не можете редактировать свои сообщения
    Вы не можете удалять свои сообщения
    Вы не можете голосовать в опросах
    Вы не можете прикреплять файлы к сообщениям
    Вы не можете скачивать файлы