BitTorrentTracker PerecTracker.org
BitTorrentTracker PerecTracker.org
    
Регистрация  ·  Вход
 
 · 
Забыли пароль?

  • Мои африканские приключения / Min sosters born i Afrika / Min søsters børn i Afrika (Мартин Миэ-Ренар / Martin Miehe-Renard) [2013, Дания, комедия, приключения, семейный, HDRip] MVO (студия ТВ+)

    Ответить на тему
     
    Автор Сообщение

    Columb

    Создавать темы 13-Авг-2014 23:28

           

    [Цитировать]

    Мои африканские приключения / Min sosters born i Afrika / Min søsters børn i Afrika
    Страна: Дания
    Жанр: комедия, приключения, семейный
    Год выпуска: 2013
    Продолжительность: 01:16:37
    Перевод: Профессиональный (многоголосый закадровый) студия ТВ+
    Cубтитры: нет
    Оригинальная аудиодорожка: датский
    Режиссер: Мартин Миэ-Ренар / Martin Miehe-Renard
    В ролях: Петер Мюгинд, Милле Динесен, Роберт Хансен, Вибеке Хаструп, Дитте Хансен, Вики Брукер
    Описание: Семья Берг отправляется в путешествие по Африке, чтобы принять участие в спасении исчезающих видов животных. И взрослые, и дети получают незабываемые впечатления от дикой природы Африки, переживают опасности, противостоят браконьерам.
    Сэмпл: http://multi-up.com/991993
    Качество видео: HDRip
    Формат видео: AVI
    Видео: MPEG4, XviD, 720x384 (1.875), 25.000 fps, 1 807 Kbps (0.261 bit/pixel)
    Аудио: AC-3, 48.0 KHz, 6 ch, 448 Kbps, CBR - русский
    Аудио 2: AC-3, 48.0 KHz, 6 ch, 448 Kbps, CBR - датский

    MediaInfo

    Общее
    Полное имя : K:\Мои африканские приключения.avi
    Формат : AVI
    Формат/Информация : Audio Video Interleave
    Размер файла : 1,45 Гбайт
    Продолжительность : 1 ч. 16 м.
    Общий поток : 2718 Кбит/сек
    Название фильма : Мои африканские приключения / Min sosters born i Afrika (2013)
    Программа кодирования : VirtualDubMod 1.5.10.2 (build 2540/release)
    Библиотека кодирования : VirtualDubMod build 2540/release
    Правообладатель : miha2154
    Видео
    Идентификатор : 0
    Формат : MPEG-4 Visual
    Профиль формата : Advanced Simple@L5
    Параметр BVOP формата : 2
    Параметр QPel формата : Нет
    Параметр GMC формата : Без точки перехода
    Параметр матрицы формата : Default (MPEG)
    Идентификатор кодека : XVID
    Идентификатор кодека/Подсказка : XviD
    Продолжительность : 1 ч. 16 м.
    Битрейт : 1807 Кбит/сек
    Ширина : 720 пикселей
    Высота : 384 пикселя
    Соотношение сторон : 1,85:1
    Частота кадров : 25,000 кадров/сек
    Цветовое пространство : YUV
    Субдискретизация насыщенности : 4:2:0
    Битовая глубина : 8 бит
    Тип развёртки : Прогрессивная
    Метод сжатия : С потерями
    Бит/(Пиксели*Кадры) : 0.261
    Размер потока : 990 Мбайт (66%)
    Библиотека кодирования : XviD 1.1.0 (UTC 2005-11-22)
    Аудио #1
    Идентификатор : 1
    Формат : AC-3
    Формат/Информация : Audio Coding 3
    Расширение режима : CM (complete main)
    Параметр Endianness формата : Big
    Идентификатор кодека : 2000
    Продолжительность : 1 ч. 16 м.
    Вид битрейта : Постоянный
    Битрейт : 448 Кбит/сек
    Каналы : 6 каналов
    Расположение каналов : Front: L C R, Side: L R, LFE
    Частота : 48,0 КГц
    Битовая глубина : 16 бит
    Метод сжатия : С потерями
    Размер потока : 246 Мбайт (16%)
    Выравнивание : Разделение по промежуткам
    Продолжительность промежутка : 40 мс. (1,00 видеокадр)
    Время предзагрузки промежутка : 500 мс.
    Заголовок : Профессиональный (многоголосый закадровый) студия ТВ+
    Аудио #2
    Идентификатор : 2
    Формат : AC-3
    Формат/Информация : Audio Coding 3
    Расширение режима : CM (complete main)
    Параметр Endianness формата : Big
    Идентификатор кодека : 2000
    Продолжительность : 1 ч. 16 м.
    Вид битрейта : Постоянный
    Битрейт : 448 Кбит/сек
    Каналы : 6 каналов
    Расположение каналов : Front: L C R, Side: L R, LFE
    Частота : 48,0 КГц
    Битовая глубина : 16 бит
    Метод сжатия : С потерями
    Размер потока : 246 Мбайт (16%)
    Выравнивание : Разделение по промежуткам
    Продолжительность промежутка : 40 мс. (1,00 видеокадр)
    Время предзагрузки промежутка : 500 мс.
    Заголовок : Датский

    Скриншот c названием фильма

    Скриншоты

    Скачать .torrent

    Скачать торрент-файл бесплатно и на максимальной скорости!

    Как скачивать? · Что такое торрент? · Рейтинг и ограничения

    !ВНИМАНИЕ!
    Сайт не распространяет и не хранит электронные версии произведений, а занимается лишь лишь предоставлением доступа к создаваемому пользователями каталогу ссылок на торрент-файлы, которые содержат только списки хеш-сумм, убедительная просьба с жалобами обращаться напрямую к пользователю. Файлы для обмена на трекере предоставлены пользователями сайта, и администрация не несёт ответственности за их содержание. Просьба не заливать файлы, защищенные авторскими правами, а также файлы нелегального содержания!

    [Профиль] [ЛС]
    Показать сообщения:    
    Ответить на тему

    Текущее время: Сегодня, в 23:51

    Часовой пояс: GMT + 2



    Вы не можете начинать темы
    Вы не можете отвечать на сообщения
    Вы не можете редактировать свои сообщения
    Вы не можете удалять свои сообщения
    Вы не можете голосовать в опросах
    Вы не можете прикреплять файлы к сообщениям
    Вы не можете скачивать файлы