BitTorrentTracker PerecTracker.org
BitTorrentTracker PerecTracker.org
    
Регистрация  ·  Вход
 
 · 
Забыли пароль?

  • Искусство плача / Kunsten at græde i kor / The Art of Crying (Петер Шонау Фог / Peter Schønau Fog) [2006, Дания, Драма, DVDRip-AVC] VO + Original Dan

    Ответить на тему
     
    Автор Сообщение

    Columb

    Создавать темы 13-Авг-2014 15:41

           

    [Цитировать]

    Искусство плача / Kunsten at græde i kor / The Art of Crying
    Страна: Дания
    Жанр: Драма
    Год выпуска: 2006
    Продолжительность: 01:42:08
    Перевод: Одноголосый закадровый
    Cубтитры: русские, английские
    Оригинальная аудиодорожка: датский
    Режиссер: Петер Шонау Фог / Peter Schønau Fog
    В ролях: Jannik Lorenzen, Jesper Asholt, Hanne Hedelund, Julie Kolbech
    Описание: Описание жизни семьи глазами самого младшего ребёнка, Алана.
    Сэмпл: http://multi-up.com/992058
    Качество видео: DVDRip-AVC
    Формат видео: MKV
    Видео: MPEG-4 Visual at 1420 Кбит/сек : 640 x 352 (1.818) at 25.000 fps
    Аудио 1: AC-3 at 224 Кбит/сек : 2 канала, 48,0 КГц Language : ru
    Аудио 2: AC-3 at 448 Кбит/сек : 6 каналов, 48,0 КГц Language : nl
    Формат субтитров: UTF-8
    Доп. информация о субтитрах: Встроенные отключаемые (русские, английские)

    MediaInfo

    Общее
    Уникальный идентификатор : 237303196913217789833495289002019400130 (0xB286EEEBA92B3CCD99EEE8C7D30A29C2)
    Полное имя : F:\С моей озвучкой\Искусство плача.mkv
    Формат : Matroska
    Версия формата : Version 4 / Version 2
    Размер файла : 1,52 Гбайт
    Продолжительность : 1 ч. 42 м.
    Общий поток : 2135 Кбит/сек
    Дата кодирования : UTC 2014-08-12 20:09:12
    Программа кодирования : mkvmerge v6.1.0 ('Old Devil') built on Mar 4 2013 09:10:42
    Библиотека кодирования : libebml v1.3.0 + libmatroska v1.4.0
    Видео
    Идентификатор : 1
    Формат : MPEG-4 Visual
    Профиль формата : Advanced Simple@L5
    Параметр BVOP формата : Да
    Параметр QPel формата : Нет
    Параметр GMC формата : Без точки перехода
    Параметр матрицы формата : Выборочная
    Идентификатор кодека : XVID
    Идентификатор кодека/Подсказка : XviD
    Продолжительность : 1 ч. 42 м.
    Битрейт : 1420 Кбит/сек
    Ширина : 640 пикселей
    Высота : 352 пикселя
    Соотношение сторон : 16:9
    Частота кадров : 25,000 кадров/сек
    Цветовое пространство : YUV
    Субдискретизация насыщенности : 4:2:0
    Битовая глубина : 8 бит
    Тип развёртки : Прогрессивная
    Метод сжатия : С потерями
    Бит/(Пиксели*Кадры) : 0.252
    Размер потока : 1,01 Гбайт (67%)
    Библиотека кодирования : XviD 1.1.2 (UTC 2006-11-01)
    Default : Да
    Forced : Нет
    Аудио #1
    Идентификатор : 2
    Формат : AC-3
    Формат/Информация : Audio Coding 3
    Расширение режима : CM (complete main)
    Идентификатор кодека : A_AC3
    Продолжительность : 1 ч. 42 м.
    Вид битрейта : Постоянный
    Битрейт : 224 Кбит/сек
    Каналы : 2 канала
    Расположение каналов : Front: L R
    Частота : 48,0 КГц
    Битовая глубина : 16 бит
    Метод сжатия : С потерями
    Размер потока : 164 Мбайт (10%)
    Язык : Russian
    Default : Нет
    Forced : Нет
    Аудио #2
    Идентификатор : 3
    Формат : AC-3
    Формат/Информация : Audio Coding 3
    Расширение режима : CM (complete main)
    Идентификатор кодека : A_AC3
    Продолжительность : 1 ч. 42 м.
    Вид битрейта : Постоянный
    Битрейт : 448 Кбит/сек
    Каналы : 6 каналов
    Расположение каналов : Front: L C R, Side: L R, LFE
    Частота : 48,0 КГц
    Битовая глубина : 16 бит
    Метод сжатия : С потерями
    Размер потока : 327 Мбайт (21%)
    Язык : Dutch
    Default : Нет
    Forced : Нет
    Текст #1
    Идентификатор : 4
    Формат : UTF-8
    Идентификатор кодека : S_TEXT/UTF8
    Идентификатор кодека/Информация : UTF-8 Plain Text
    Default : Нет
    Forced : Нет
    Текст #2
    Идентификатор : 5
    Формат : UTF-8
    Идентификатор кодека : S_TEXT/UTF8
    Идентификатор кодека/Информация : UTF-8 Plain Text
    Default : Да
    Forced : Нет

    Скриншоты

    Скачать .torrent

    Скачать торрент-файл бесплатно и на максимальной скорости!

    Как скачивать? · Что такое торрент? · Рейтинг и ограничения

    !ВНИМАНИЕ!
    Сайт не распространяет и не хранит электронные версии произведений, а занимается лишь лишь предоставлением доступа к создаваемому пользователями каталогу ссылок на торрент-файлы, которые содержат только списки хеш-сумм, убедительная просьба с жалобами обращаться напрямую к пользователю. Файлы для обмена на трекере предоставлены пользователями сайта, и администрация не несёт ответственности за их содержание. Просьба не заливать файлы, защищенные авторскими правами, а также файлы нелегального содержания!

    [Профиль] [ЛС]
    Показать сообщения:    
    Ответить на тему

    Текущее время: Сегодня, в 12:39

    Часовой пояс: GMT + 2



    Вы не можете начинать темы
    Вы не можете отвечать на сообщения
    Вы не можете редактировать свои сообщения
    Вы не можете удалять свои сообщения
    Вы не можете голосовать в опросах
    Вы не можете прикреплять файлы к сообщениям
    Вы не можете скачивать файлы