BitTorrentTracker PerecTracker.org
BitTorrentTracker PerecTracker.org
    
Регистрация  ·  Вход
 
 · 
Забыли пароль?

  • Осипов А.И. Что такое Православие (2010, г. Химки) [2010.12.12, Православная лекция, HDRip]

    Ответить на тему
     
    Автор Сообщение

    Columb

    Создавать темы 13-Авг-2014 15:18

           

    [Цитировать]

    Осипов А.И. Что такое Православие (2010, г. Химки)
    Дата/Год выпуска: 2010.12.12
    Страна: Россия
    Жанр: Православная лекция
    Продолжительность: 01.34.49
    Перевод: Не требуется
    Русские субтитры: нет
    Оригинальная аудиодорожка: русский
    Описание: Лекция профессора МДА Осипова А.И
    Доп. информация: Алексей Ильич Осипов - крупный православный катехизатор и апологет современности, педагог и публицист. Заслуженный профессор Московской духовной академии, доктор богословия. Член Президиума Межсоборного присутствия Русской Православной Церкви. Академик РАЕН.
    Из обращения А. И. Осипова к посетителям его официального сайта:
    "Основная задача публикуемых здесь материалов – обратить внимание современного человека, как верующего, так и неверующего, на вопрос о смысле жизни, и прежде всего на главный вопрос: есть ли Бог и бессмертие человеческой личности или вечная смерть ожидает ее? Наибольшее внимание при этом отводится вопросам духовной жизни, поскольку лишь она способна спасти современного человека от катастрофически нарастающего потока бездуховности в мире.
    Сейчас особую остроту приобретает борьба между двумя взаимоисключающими процессами: воцерковлением мира и омiрщением Церкви. Силы омiрщения, как всегда, сплочены, и в связи с небывалым развитием информационных технологий получили особенно широкие возможности эффективно использовать своё мощное оружие поражения: сластолюбие, сребролюбие, славолюбие (авва Дорофей). Мечи и стрелы их не щадят никого, не взирая ни на ученые степени и звания, ни на священный сан, ни на положение в Церкви. Поэтому омiрщение с большой силой проникает в сознание, деятельность и духовную жизнь самих верующих.
    Оружие Церкви иное. Как писал в середине 19-го века святитель Игнатий (Брянчанинов): «Для овец оружие волков неестественно. Овцы покоряли волков любовью и кротостью, а если в дело пошли зубы, то овцам не устоять, особенно при нынешнем охлаждении мирян к религии, а паче к духовенству». Эта мысль насколько верна, настолько и трудно исполнима. Ибо для воцерковления мира она требует от верующего не обычного оружия внешней деятельности, но прежде всего внутреннего подвига борьбы со своими страстями, жизни по Евангелию. Лишь такой „деятельностью“ приобретаются любовь и кротость – это непобедимое оружие Христа. Только им можно противостоять омiрщению и воцерковлять мир. Но кто кого в этот раз победит?"
    качество: HDRip
    формат: MPG
    Видео: MPEG 2, 720x576 (16:9), 25.000 fps, 2 000 Kbps (0.193 bit/pixel)
    Аудио: MP2, 48.0 KHz, 2 ch, 224 Kbps, CBR

    MediaInfo

    Формат : MPEG-PSРазмер файла : 1,50 ГбайтПродолжительность : 1 ч. 34 м.Общий поток : 2260 Кбит/сек
    ВидеоИдентификатор : 224 (0xE0)Формат : MPEG VideoВерсия формата : Version 2Профиль формата : Main@MainПараметр BVOP формата : ДаПараметр матрицы формата : ВыборочнаяПараметр GOP формата : M=3, N=15Продолжительность : 1 ч. 34 м.Битрейт : 2000 Кбит/секШирина : 720 пикселейВысота : 576 пикселейСоотношение сторон : 16:9Частота кадров : 25,000 кадров/секСтандарт вещания : PALЦветовое пространство : YUVСубдискретизация насыщенности : 4:2:0Битовая глубина : 8 битТип развёртки : ЧересстрочнаяПорядок развёртки : Верхнее поле первоеМетод сжатия : С потерямиБит/(Пиксели*Кадры) : 0.193Временной код первого кадра : 00:00:00:00Оригинал временного кода : Group of pictures headerРазмер потока : 1,32 Гбайт (88%)
    АудиоИдентификатор : 192 (0xC0)Формат : MPEG AudioВерсия формата : Version 1Профиль формата : Layer 2Режим : Dual monoПродолжительность : 1 ч. 34 м.Вид битрейта : ПостоянныйБитрейт : 224 Кбит/секКаналы : 2 каналаЧастота : 48,0 КГцМетод сжатия : С потерямиРазмер потока : 152 Мбайт (10%)

    Скриншоты

    Скачать .torrent

    Скачать торрент-файл бесплатно и на максимальной скорости!

    Как скачивать? · Что такое торрент? · Рейтинг и ограничения

    !ВНИМАНИЕ!
    Сайт не распространяет и не хранит электронные версии произведений, а занимается лишь лишь предоставлением доступа к создаваемому пользователями каталогу ссылок на торрент-файлы, которые содержат только списки хеш-сумм, убедительная просьба с жалобами обращаться напрямую к пользователю. Файлы для обмена на трекере предоставлены пользователями сайта, и администрация не несёт ответственности за их содержание. Просьба не заливать файлы, защищенные авторскими правами, а также файлы нелегального содержания!

    [Профиль] [ЛС]
    Показать сообщения:    
    Ответить на тему

    Текущее время: Сегодня, в 20:27

    Часовой пояс: GMT + 2



    Вы не можете начинать темы
    Вы не можете отвечать на сообщения
    Вы не можете редактировать свои сообщения
    Вы не можете удалять свои сообщения
    Вы не можете голосовать в опросах
    Вы не можете прикреплять файлы к сообщениям
    Вы не можете скачивать файлы