BitTorrentTracker PerecTracker.org
BitTorrentTracker PerecTracker.org
    
Регистрация  ·  Вход
 
 · 
Забыли пароль?

  • ПОРТ-АРТУР. МЫ ВЕРНУЛИСЬ (Константин Суев) (2 части из 2) [2012, Документалистика, DVB]

    Ответить на тему
     
    Автор Сообщение

    Columb

    Создавать темы 13-Авг-2014 14:49

           

    [Цитировать]

    ПОРТ-АРТУР. МЫ ВЕРНУЛИСЬ
    Дата/Год выпуска: 2012
    Страна: Россия
    Жанр: Документалистика
    Продолжительность: 2 х 44 мин.
    Перевод: Не требуется
    Русские субтитры: нет
    Режиссер: Константин Суев
    Телеканал: Россия 1
    Описание: Март 1898 года. Китай, Порт-Артур. Броненосный крейсер "Рюрик" бросает якорь в западном бассейне. Вместе с ним еще десяток кораблей российского военно-морского флота. Русские не стреляют, не блокируют гавань и даже не сходят на берег. Договор с Китаем об аренде южной части Квантунского полуострова еще не подписан. Но аргументы империи с суммарным водоизмещением в сотню тысяч тонн действительно железные.
    С китайской стороны переговоры вел по сути второй человек при дворе, канцлер Ли Хун-джан. Человек проверенный - через него Россия уже пробила строительство Китайской восточной железной дороги. Теперь нужно было развить успех, получить в Китае еще и военно-морскую базу. С нашей стороны эту трудную миссию поручили дипломату не по должности, а по призванию - графу Сергею Юрьевичу Витте. министру финансов.
    На русском кладбище в Порт-Артуре больше нет горя. Хотя лежат здесь четыре поколения россиян разных возрастов, чинов, званий, вер, национальностей, убеждений. Те, у кого уже умерли внуки, и те, кто сам еще мог бы жить. Гуляя по нему, невозможно понять, как на таком маленьком клочке чужеземной, но очень родной земли могла уместиться вся огромная Россия первой и самой драматической половины XX века, со своим мужеством и головотяпством, верностью и малодушием, геройством и предательством, Зато очевидно другое - те, кто уснул тут вечным сном - это основа, матрица нас, живых и живущих в России.
    Потому что без памяти о них не будет ни будущего, ни веры в себя. Потому что рождение и смерть - это не стены, а двери...
    Сэмпл: http://multi-up.com/992036
    качество: DVB
    формат: TS/M2TS
    Видео: AVC, аноморф. 704х576, 4:3, 1672 Кбит/сек, 25 fps
    Аудио: MPEG Audio, 160 Кбит/сек, 44 КГц, 2 канала

    Список выпусков/серий

    Фильм 1-й. Образование русской военной базы "Порт-Артур"; Русско-японская война 1904-1905 гг., образование Русского кладбища.
    Фильм 2-й. Война с Японией 1945 г.; Корейская война 1950-1953 гг.

    MediaInfo

    ОбщееИдентификатор : 16 (0x10)Полное имя : Port - Arthur. We're back. part 1.tsФормат : MPEG-TSРазмер файла : 603 МбайтПродолжительность : 43 м.Режим общего битрейта : ПеременныйОбщий поток : 1929 Кбит/сек
    ВидеоИдентификатор : 1411 (0x583)Идентификатор меню : 411 (0x19B)Формат : AVCФормат/Информация : Advanced Video CodecПрофиль формата : Main@L3.0Параметр CABAC формата : ДаПараметр ReFrames формата : 3 кадраИдентификатор кодека : 27Продолжительность : 43 м.Битрейт : 1672 Кбит/секШирина : 704 пикселяВысота : 576 пикселейСоотношение сторон : 4:3Частота кадров : 25,000 кадров/секСтандарт вещания : PALЦветовое пространство : YUVСубдискретизация насыщенности : 4:2:0Битовая глубина : 8 битТип развёртки : ЧересстрочнаяПорядок развёртки : Верхнее поле первоеБит/(Пиксели*Кадры) : 0.165Размер потока : 523 Мбайт (87%)Основные цвета : BT.601 PALХарактеристики трансфера : BT.470 System B, BT.470 System GКоэффициенты матрицы : BT.601
    АудиоИдентификатор : 2411 (0x96B)Идентификатор меню : 411 (0x19B)Формат : MPEG AudioВерсия формата : Version 1Профиль формата : Layer 2Идентификатор кодека : 4Продолжительность : 43 м.Вид битрейта : ПостоянныйБитрейт : 160 Кбит/секКаналы : 2 каналаЧастота : 48,0 КГцМетод сжатия : С потерямиЗадержка видео : 52 мс.Размер потока : 50,0 Мбайт (8%)Язык : stdЯзык, дополнительно : Clean effects

    Скриншоты

    Скачать .torrent

    Скачать торрент-файл бесплатно и на максимальной скорости!

    Как скачивать? · Что такое торрент? · Рейтинг и ограничения

    !ВНИМАНИЕ!
    Сайт не распространяет и не хранит электронные версии произведений, а занимается лишь лишь предоставлением доступа к создаваемому пользователями каталогу ссылок на торрент-файлы, которые содержат только списки хеш-сумм, убедительная просьба с жалобами обращаться напрямую к пользователю. Файлы для обмена на трекере предоставлены пользователями сайта, и администрация не несёт ответственности за их содержание. Просьба не заливать файлы, защищенные авторскими правами, а также файлы нелегального содержания!

    [Профиль] [ЛС]
    Показать сообщения:    
    Ответить на тему

    Текущее время: Сегодня, в 10:48

    Часовой пояс: GMT + 2



    Вы не можете начинать темы
    Вы не можете отвечать на сообщения
    Вы не можете редактировать свои сообщения
    Вы не можете удалять свои сообщения
    Вы не можете голосовать в опросах
    Вы не можете прикреплять файлы к сообщениям
    Вы не можете скачивать файлы