BitTorrentTracker PerecTracker.org
BitTorrentTracker PerecTracker.org
    
Регистрация  ·  Вход
 
 · 
Забыли пароль?

  • Невеста Зэнди / Невеста Занди / Zandy's Bride (Ян Труэль / Jan Troell) [1974, США, вестерн, DVDRip] MVO + Original (Eng)

    Ответить на тему
     
    Автор Сообщение

    Columb

    Создавать темы 13-Авг-2014 14:37

           

    [Цитировать]

    Невеста Зэнди / Невеста Занди / Zandy's Bride
    Год выпуска: 1974
    Страна: США
    Жанр: вестерн
    Продолжительность: 01:37:03
    Перевод: Профессиональный (многоголосый, закадровый)
    Субтитры: нет
    Оригинальная аудиодорожка: английский
    Режиссер: Ян Труэль / Jan Troell
    В ролях: Джин Хэкмен (Zandy Allan), Лив Ульман (Hannah Lund), Айлин Хекарт (Ma Allan), Сьюзен Тиррел (Maria Cordova), Гарри Дин Стэнтон (Songer), Джо Сантос (Frank Gallo), Фрэнк Кэди (Pa Allan), Сэм Боттомс (Mel Allan), Боб Симпсон (Bill Pincus), Вивиан Гордон (Street girl), Фабиан Грегори Кордова (Indian boy), Эуменио Бланко (Man, в титрах не указан)-Мировая премьера: 19 мая 1974-Описание: Аллан Занди находит себе невесту по брачному объявлению - Ханну Лунд. Свою жену он рассматривает исключительно с прикладной точки зрения - как свою собственность. Но жизнь готовит им непростые испытания, преодоление которых рождает большое чувство...-[/url]Рейтинг
    : 6.500 (36)
    : 6.20 (468)
    MPAA: PG - Рекомендуется присутствие родителей
    -Качество:DVDRip
    Формат: AVI //SAMPLE//
    Видео: 720x304 (2.37:1), 23.976 fps, XviD build 65 ~1749 kbps avg, 0.33 bit/pixel
    Аудио RUS: 48 kHz, AC3 Dolby Digital, 2/0 (L,R) ch, ~192 kbps - MVO
    Аудио ENG: 48 kHz, AC3 Dolby Digital, 2/0 (L,R) ch, ~192 kbps - Original

    MediaInfo

    Общее
    Полное имя : F:\Video\AVI\Films\Nevesta.Zjendi.1974.DUAL.DVDRip.XviD.AC3.-AllFilms.avi
    Формат : AVI
    Формат/Информация : Audio Video Interleave
    Размер файла : 1,46 Гбайт
    Продолжительность : 1 ч. 37 м.
    Общий поток : 2148 Кбит/сек
    Название фильма : Невеста Зэнди / Невеста Занди / Zandy's Bride (1974)
    Режиссёр : Shevon (DVD9 R1)
    Программа кодирования : VirtualDubMod 1.5.10.3 | www.virtualdub-fr.org || (build 2550/release)
    Правообладатель : AllFilms (rutracker.org)
    Видео
    Идентификатор : 0
    Формат : MPEG-4 Visual
    Профиль формата : Advanced Simple@L5
    Параметр BVOP формата : 1
    Параметр QPel формата : Нет
    Параметр GMC формата : Без точки перехода
    Параметр матрицы формата : Выборочная
    Идентификатор кодека : XVID
    Идентификатор кодека/Подсказка : XviD
    Продолжительность : 1 ч. 37 м.
    Битрейт : 1750 Кбит/сек
    Ширина : 720 пикселей
    Высота : 304 пикселя
    Соотношение сторон : 2,35:1
    Частота кадров : 23,976 кадра/сек
    Цветовое пространство : YUV
    Субдискретизация насыщенности : 4:2:0
    Битовая глубина : 8 бит
    Тип развёртки : Прогрессивная
    Метод сжатия : С потерями
    Бит/(Пиксели*Кадры) : 0.333
    Размер потока : 1,19 Гбайт (81%)
    Библиотека кодирования : XviD 65
    Аудио #1
    Идентификатор : 1
    Формат : AC-3
    Формат/Информация : Audio Coding 3
    Расширение режима : CM (complete main)
    Параметр Endianness формата : Big
    Идентификатор кодека : 2000
    Продолжительность : 1 ч. 37 м.
    Вид битрейта : Постоянный
    Битрейт : 192 Кбит/сек
    Каналы : 2 канала
    Расположение каналов : Front: L R
    Частота : 48,0 КГц
    Битовая глубина : 16 бит
    Метод сжатия : С потерями
    Размер потока : 133 Мбайт (9%)
    Выравнивание : Разделение по промежуткам
    Продолжительность промежутка : 42 мс. (1,00 видеокадр)
    Время предзагрузки промежутка : 500 мс.
    Аудио #2
    Идентификатор : 2
    Формат : AC-3
    Формат/Информация : Audio Coding 3
    Расширение режима : CM (complete main)
    Параметр Endianness формата : Big
    Идентификатор кодека : 2000
    Продолжительность : 1 ч. 37 м.
    Вид битрейта : Постоянный
    Битрейт : 192 Кбит/сек
    Каналы : 2 канала
    Расположение каналов : Front: L R
    Частота : 48,0 КГц
    Битовая глубина : 16 бит
    Метод сжатия : С потерями
    Размер потока : 133 Мбайт (9%)
    Выравнивание : Разделение по промежуткам
    Продолжительность промежутка : 42 мс. (1,00 видеокадр)
    Время предзагрузки промежутка : 500 мс.

    Скриншоты

    -
    Скачать .torrent

    Скачать торрент-файл бесплатно и на максимальной скорости!

    Как скачивать? · Что такое торрент? · Рейтинг и ограничения

    !ВНИМАНИЕ!
    Сайт не распространяет и не хранит электронные версии произведений, а занимается лишь лишь предоставлением доступа к создаваемому пользователями каталогу ссылок на торрент-файлы, которые содержат только списки хеш-сумм, убедительная просьба с жалобами обращаться напрямую к пользователю. Файлы для обмена на трекере предоставлены пользователями сайта, и администрация не несёт ответственности за их содержание. Просьба не заливать файлы, защищенные авторскими правами, а также файлы нелегального содержания!

    [Профиль] [ЛС]
    Показать сообщения:    
    Ответить на тему

    Текущее время: Сегодня, в 23:58

    Часовой пояс: GMT + 2



    Вы не можете начинать темы
    Вы не можете отвечать на сообщения
    Вы не можете редактировать свои сообщения
    Вы не можете удалять свои сообщения
    Вы не можете голосовать в опросах
    Вы не можете прикреплять файлы к сообщениям
    Вы не можете скачивать файлы