BitTorrentTracker PerecTracker.org
BitTorrentTracker PerecTracker.org
    
Регистрация  ·  Вход
 
 · 
Забыли пароль?

  • Несносные медведи в перерыве между тренировками / The Bad News Bears in Breaking Training (Майкл Прессман / Michael Pressman) [1977, США, комедия, спорт, HDTVRip] MVO

    Ответить на тему
     
    Автор Сообщение

    Columb

    Создавать темы 13-Авг-2014 14:36

           

    [Цитировать]

    Несносные медведи в перерыве между тренировками / The Bad News Bears in Breaking Training
    Страна: США
    Жанр: комедия, спорт
    Год выпуска: 1977
    Продолжительность: 01:34:06
    Перевод: Профессиональный (многоголосый закадровый)
    Cубтитры: нет
    Режиссер: Майкл Прессман / Michael Pressman
    В ролях: Уильям Дивэйн, Клифтон Джеймс, Крис Барнс, Джеки Эрл Хейли, Джимми Байо, Эрин Блант, Джордж Гонзалес, Джейм Эскобедо, Альфред Люттер III, Бретт Маркс…
    Описание: Мятежный подросток нервничает перед игрой в Хьюстоне, где они играют товарищеский матч, и нанимает отца в качестве тренера команды.
    Сэмпл: https://yadi.sk/i/tIiZiWNpZWKS2
    Доп. информация: За исходник большое спасибо slavikevro
    Качество видео: HDTVRip [Исходник 1080i]
    Формат видео: AVI
    Видео: 720x400 (1.80:1), 25 fps, XviD build 50 ~1999 kbps avg, 0.28 bit/pixel
    Аудио: 48 kHz, AC3 Dolby Digital, 2/0 (L,R) ch, ~192 kbps

    MediaInfo

    Несносные медведи в перерыве между тренировками - The Bad News Bears in Breaking Training [by Edich2].avi
    Format : AVI
    Format/Info : Audio Video Interleave
    File size : 1.45 GiB
    Duration : 1h 34mn
    Overall bit rate : 2 202 Kbps
    Movie name : Несносные медведи в перерыве между тренировками - The Bad News Bears in Breaking Training [by Edich2]
    Director : Rip by Edich2
    Writing application : VirtualDubMod 1.5.10.3 | www.virtualdub-fr.org || (build 2550/release)
    Comment : RuTracker.org
    Video
    ID : 0
    Format : MPEG-4 Visual
    Format profile : Advanced Simple@L5
    Format settings, BVOP : 2
    Format settings, QPel : No
    Format settings, GMC : No warppoints
    Format settings, Matrix : Custom
    Codec ID : XVID
    Codec ID/Hint : XviD
    Duration : 1h 34mn
    Bit rate : 2 000 Kbps
    Width : 720 pixels
    Height : 400 pixels
    Display aspect ratio : 16:9
    Frame rate : 25.000 fps
    Color space : YUV
    Chroma subsampling : 4:2:0
    Bit depth : 8 bits
    Scan type : Progressive
    Compression mode : Lossy
    Bits/(Pixel*Frame) : 0.278
    Stream size : 1.31 GiB (91%)
    Writing library : XviD 1.2.1 (UTC 2008-12-04)
    Audio
    ID : 1
    Format : AC-3
    Format/Info : Audio Coding 3
    Mode extension : CM (complete main)
    Format settings, Endianness : Big
    Codec ID : 2000
    Duration : 1h 34mn
    Bit rate mode : Constant
    Bit rate : 192 Kbps
    Channel(s) : 2 channels
    Channel positions : Front: L R
    Sampling rate : 48.0 KHz
    Bit depth : 16 bits
    Compression mode : Lossy
    Stream size : 129 MiB (9%)
    Alignment : Split accross interleaves
    Interleave, duration : 40 ms (1.00 video frame)
    Interleave, preload duration : 500 ms

    Скриншоты


    Скачать .torrent

    Скачать торрент-файл бесплатно и на максимальной скорости!

    Как скачивать? · Что такое торрент? · Рейтинг и ограничения

    !ВНИМАНИЕ!
    Сайт не распространяет и не хранит электронные версии произведений, а занимается лишь лишь предоставлением доступа к создаваемому пользователями каталогу ссылок на торрент-файлы, которые содержат только списки хеш-сумм, убедительная просьба с жалобами обращаться напрямую к пользователю. Файлы для обмена на трекере предоставлены пользователями сайта, и администрация не несёт ответственности за их содержание. Просьба не заливать файлы, защищенные авторскими правами, а также файлы нелегального содержания!

    [Профиль] [ЛС]
    Показать сообщения:    
    Ответить на тему

    Текущее время: Сегодня, в 15:47

    Часовой пояс: GMT + 2



    Вы не можете начинать темы
    Вы не можете отвечать на сообщения
    Вы не можете редактировать свои сообщения
    Вы не можете удалять свои сообщения
    Вы не можете голосовать в опросах
    Вы не можете прикреплять файлы к сообщениям
    Вы не можете скачивать файлы