BitTorrentTracker PerecTracker.org
BitTorrentTracker PerecTracker.org
    
Регистрация  ·  Вход
 
 · 
Забыли пароль?

  • Человек-приманка / Серии: 1-8 из 16 (Гузэль Киреева) [2014, Комедийный боевик, HDTV 1080i]

    Ответить на тему
     
    Автор Сообщение

    Columb

    Создавать темы 13-Авг-2014 14:05

           

    [Цитировать]

    Человек-приманка
    Год выпуска: 2014
    Производство: Россия, Кинокомпания "Пирамида"
    Жанр: Комедийный боевик
    Продолжительность: ~0:50:00 серия
    Субтитры: нет
    Режиссёр: Гузэль Киреева
    В ролях: Максим Аверин, Сергей Громов, Татьяна Лянник, Анна Якунина, Владимир Зайцев, Павел Басов, Эльмар Аблаев, Геннадий Матвеев, Елена Калабина, Олег Чудницов, Алексей Семченков, Назар Ас-Самаррай, Владимир Чуприков, Алина Кизиярова, Федор Румянцев, Елена Рубина, Евгений Галушко, Оксана Тимановская, Вероника Лысакова, Дария Тюрина, Екатерина Мадалинская
    Описание: Компьютерщик Гена Верещагин с первого взгляда кажется обычным человеком. Необычным является его необъяснимое, по началу, качество "влипать" в самые невероятные ситуации...
    Приехав на рядовое собеседование по поводу трудоустройства, Гена попадает в эпицентр разборок двух враждующих бандитских группировок. Причем, каждая из сторон принимает его за таинственного киллера по кличке "Клоун".
    Все раздачи сериала: Человек-приманка

    Качество: HDTV 1080i
    Формат: TS
    Видео кодек: H.264
    Аудио кодек: MP2
    Видео: MPEG4 Video (H264) 1920x1080, ~ 7929 Кбит/с, 25.00fps 0.153 bit/pixel
    Аудио: MP2, 2 канала, 48,0 КГц, ~256 kbps
    Сторонней рекламы нет!

    MediaInfo

    ОбщееИдентификатор : 1 (0x1)Полное имя : H:\Человек-приманка HDTV 1080i\Человек-приманка 01_серия_HDTV_1080i.tsФормат : MPEG-TSРазмер файла : 2,60 ГбайтПродолжительность : 43 м.Общий поток : 8613 Кбит/секМаксимальный общий битрейт : 35,5 Мбит/сек
    ВидеоИдентификатор : 4113 (0x1011)Идентификатор меню : 1 (0x1)Формат : AVCФормат/Информация : Advanced Video CodecПрофиль формата : High@L4.0Параметр CABAC формата : ДаПараметр ReFrames формата : 4 кадраИдентификатор кодека : 27Продолжительность : 43 м.Вид битрейта : ПеременныйБитрейт : 7929 Кбит/секМаксимальный битрейт : 40,0 Мбит/секШирина : 1920 пикс.Высота : 1080 пикс.Соотношение сторон : 16:9Частота кадров : 25,000 кадр/секЦветовое пространство : YUVПодвыборка цветности : 4:2:0Битовая глубина : 8 битТип развёртки : MBAFFБит/(Пиксели*Кадры) : 0.153Размер потока : 2,39 Гбайт (92%)
    АудиоИдентификатор : 4352 (0x1100)Идентификатор меню : 1 (0x1)Формат : MPEG AudioВерсия формата : Version 1Профиль формата : Layer 2Идентификатор кодека : 4Продолжительность : 43 м.Вид битрейта : ПостоянныйБитрейт : 256 Кбит/секКаналы : 2 каналаЧастота : 48,0 КГцМетод сжатия : С потерямиРазмер потока : 79,1 Мбайт (3%)Язык : Russian
    Отдельное спасибо nikolspup за предоставление материала.

    Внимание ! Раздача ведётся путём добавления новых серий

    Внимание! Раздача ведётся путём добавления новых серий; при каждом добавлении создётся новый торрент. Чтобы начать докачку новой серии, пользователям необходимо сделать следующее:
    (1) остановить скачивание,
    (2) удалить старый торрент у себя из клиента (старые серии удалять не надо),
    (3) скачать новый торрент и запустить его у себя в клиенте вместо старого, при этом указать клиенту путь в старую папку куда и должно происходить скачивание новых серий.
    Ваш клиент при этом должен произвести хеширование (проверку) старой папки (если не производит сам - помогите ему сделать это), и будет докачивать только те серии которых у вас ещё нет. Старые серии при этом не удаляются, а продолжают раздаваться!
    Eсли вы уже удалили старые серии, то предотвратить повторную закачку старых серий можно, отжав галочку в соответсвующих местах при запуске нового торрента. По возможности, желательно не удалять старые серии как можно дольше чтобы релизёр не столько продолжал раздавать старые серии, а смог сконцентрироваться на новых.
    ВНИМАНИЕ! ТОРРЕНТ ПЕРЕЗАЛИТ! ДОБАВЛЕНА 8-ая СЕРИИ!

    Скриншоты

    Скачать .torrent

    Скачать торрент-файл бесплатно и на максимальной скорости!

    Как скачивать? · Что такое торрент? · Рейтинг и ограничения

    !ВНИМАНИЕ!
    Сайт не распространяет и не хранит электронные версии произведений, а занимается лишь лишь предоставлением доступа к создаваемому пользователями каталогу ссылок на торрент-файлы, которые содержат только списки хеш-сумм, убедительная просьба с жалобами обращаться напрямую к пользователю. Файлы для обмена на трекере предоставлены пользователями сайта, и администрация не несёт ответственности за их содержание. Просьба не заливать файлы, защищенные авторскими правами, а также файлы нелегального содержания!

    [Профиль] [ЛС]
    Показать сообщения:    
    Ответить на тему

    Текущее время: Сегодня, в 18:13

    Часовой пояс: GMT + 2



    Вы не можете начинать темы
    Вы не можете отвечать на сообщения
    Вы не можете редактировать свои сообщения
    Вы не можете удалять свои сообщения
    Вы не можете голосовать в опросах
    Вы не можете прикреплять файлы к сообщениям
    Вы не можете скачивать файлы