BitTorrentTracker PerecTracker.org
BitTorrentTracker PerecTracker.org
    
Регистрация  ·  Вход
 
 · 
Забыли пароль?

  • Ilse DeLange - Miracle [2008, POP, COUNTRY, HDTV 720p]

    Ответить на тему
     
    Автор Сообщение

    Columb

    Создавать темы 13-Авг-2014 13:59

           

    [Цитировать]

    Ilse DeLange - Miracle
    Жанр: POP, COUNTRY
    Продолжительность: 00:04:34
    Год выпуска: 2008
    Описание: Music video by Ilse DeLange performing Miracle. (C) 2008 Universal Music B.V., The Netherlands
    Качество: HDTV 720p
    Контейнер: MKV
    Видео кодек: VC-1
    Аудио кодек: AAC
    Видео: MPEG-4, 1280*720, 2126, 25
    Аудио: AAC, 124-221, 44 kHz, 2.0

    Отчёт MediaInfo / BDInfo

    GeneralComplete name : E:\-MUSICVIDEOS-\Ilse DeLange - Miracle (officiële videoclip) .mkvFormat : MPEG-4Format profile : Base Media / Version 2Codec ID : mp42File size : 69.5 MiBDuration : 4mn 34sOverall bit rate mode : VariableOverall bit rate : 2 126 KbpsEncoded date : UTC 2009-01-08 14:51:30Tagged date : UTC 2009-01-08 14:51:30gsst : 0gstd : 274505gssd : BC22C2384MH1307871425609228gshh : o-o.preferred.uarnet-kbp1.v13.lscache5.c.youtube.com
    VideoID : 2Format : AVCFormat/Info : Advanced Video CodecFormat profile : High@L3.1Format settings, CABAC : YesFormat settings, ReFrames : 3 framesCodec ID : avc1Codec ID/Info : Advanced Video CodingDuration : 4mn 34sBit rate : 1 998 KbpsMaximum bit rate : 4 682 KbpsWidth : 1 280 pixelsHeight : 720 pixelsDisplay aspect ratio : 16:9Frame rate mode : ConstantFrame rate : 25.000 fpsColor space : YUVChroma subsampling : 4:2:0Bit depth : 8 bitsScan type : ProgressiveBits/(Pixel*Frame) : 0.087Stream size : 65.3 MiB (94%)Title : (C) 2007 Google Inc. v08.13.2007.Encoded date : UTC 2009-01-08 14:51:30Tagged date : UTC 2009-01-08 14:51:33
    AudioID : 1Format : AACFormat/Info : Advanced Audio CodecFormat profile : LCCodec ID : 40Duration : 4mn 34sBit rate mode : VariableBit rate : 124 KbpsMaximum bit rate : 221 KbpsChannel(s) : 2 channelsChannel positions : Front: L RSampling rate : 44.1 KHzCompression mode : LossyStream size : 4.06 MiB (6%)Title : (C) 2007 Google Inc. v08.13.2007.Encoded date : UTC 2009-01-08 14:51:30Tagged date : UTC 2009-01-08 14:51:33

    Скриншоты



    Скачать .torrent

    Скачать торрент-файл бесплатно и на максимальной скорости!

    Как скачивать? · Что такое торрент? · Рейтинг и ограничения

    !ВНИМАНИЕ!
    Сайт не распространяет и не хранит электронные версии произведений, а занимается лишь лишь предоставлением доступа к создаваемому пользователями каталогу ссылок на торрент-файлы, которые содержат только списки хеш-сумм, убедительная просьба с жалобами обращаться напрямую к пользователю. Файлы для обмена на трекере предоставлены пользователями сайта, и администрация не несёт ответственности за их содержание. Просьба не заливать файлы, защищенные авторскими правами, а также файлы нелегального содержания!

    [Профиль] [ЛС]
    Показать сообщения:    
    Ответить на тему

    Текущее время: Сегодня, в 20:45

    Часовой пояс: GMT + 2



    Вы не можете начинать темы
    Вы не можете отвечать на сообщения
    Вы не можете редактировать свои сообщения
    Вы не можете удалять свои сообщения
    Вы не можете голосовать в опросах
    Вы не можете прикреплять файлы к сообщениям
    Вы не можете скачивать файлы