BitTorrentTracker PerecTracker.org
BitTorrentTracker PerecTracker.org
    
Регистрация  ·  Вход
 
 · 
Забыли пароль?

  • Ночь отдыха для мам / Moms' Night Out (Эндрю Эрвин, Эрвин Бразерс) [2014, Канада, Франция, WEBRip] MVO (официальное озвучивание)

    Ответить на тему
     
    Автор Сообщение

    Columb

    Создавать темы 11-Авг-2014 22:33

           

    [Цитировать]

    Ночь отдыха для мам / Moms' Night Out
    Страна: Канада, Франция / MK2 Productions, Sons of Manual, Arte France Cinéma
    Жанр: комедия
    Год выпуска: 2014
    Продолжительность: 01:37:27
    Перевод: Профессиональный (многоголосый закадровый) [официальное озвучивание]
    Cубтитры: нет
    Режиссер: Эндрю Эрвин, Эрвин Бразерс
    В ролях: Сара Дрю, Шон Эстин, Патриция Хитон, Трэйси Д. Эдкинс, Дэвид Хант, Логан Уайт, Гарри Шам мл., Эбби Кобб, Роберт Амайа, Кевин Даунс
    Описание: Сюжет рассказывает о том, что бывает, когда мамы решают потусоваться ночью, оставив детей и мужей без присмотра. Три закадычные подруги, которые с утра до вечера исполняют обязанности мам, жен, домработниц и так далее, решают устроить себе выходной. Красивое платье, высокие каблуки, вечерний макияж – и вот уже Эллисон и ее подруги готовы начать вечер в шикарном ресторане. По плану после великолепного ужина они отправятся в бар выпить по коктейлю. Однако вскоре выясняется, что муж одной из девушек потерял их ребенка. Конечно, трое подруг немедленно отправляются на поиски, думая, что это досадное недоразумение можно разрешить общими усилиями в самые кратчайшие сроки. Но они еще не знают, что это только начало их длинной-длинной ночи… Во что в конечном итоге превратится «Ночь отдыха для мам»
    Сэмпл: http://sendfile.su/1010324
    Качество видео: WebRip
    Формат видео: AVI
    Видео: XviD, 720x304 (2.35:1), 25.000 fps, 1 807 Kbps (0.330 bit/pixel)
    Аудио: AC-3, 48.0 KHz, 2 ch, 192 Kbps

    MediaInfo

    Format : AVI
    Format/Info : Audio Video Interleave
    File size : 1.37 GiB
    Duration : 1h 37mn
    Overall bit rate : 2 009 Kbps
    Writing application : VirtualDubMod 1.5.10.3 | www.virtualdub-fr.org || (build 2550/release)
    Writing library : VirtualDubMod build 2550/release
    Video
    ID : 0
    Format : MPEG-4 Visual
    Format profile : Advanced Simple@L5
    Format settings, BVOP : 2
    Format settings, QPel : No
    Format settings, GMC : No warppoints
    Format settings, Matrix : Default (MPEG)
    Codec ID : XVID
    Codec ID/Hint : XviD
    Duration : 1h 37mn
    Bit rate : 1 728 Kbps
    Width : 720 pixels
    Height : 304 pixels
    Display aspect ratio : 2.35:1
    Frame rate : 25.000 fps
    Color space : YUV
    Chroma subsampling : 4:2:0
    Bit depth : 8 bits
    Scan type : Progressive
    Compression mode : Lossy
    Bits/(Pixel*Frame) : 0.316
    Stream size : 1.18 GiB (86%)
    Writing library : XviD 1.2.1 (UTC 2008-12-04)
    Audio
    ID : 1
    Format : AC-3
    Format/Info : Audio Coding 3
    Mode extension : CM (complete main)
    Format settings, Endianness : Big
    Codec ID : 2000
    Duration : 1h 37mn
    Bit rate mode : Constant
    Bit rate : 192 Kbps
    Channel(s) : 2 channels
    Channel positions : Front: L R
    Sampling rate : 48.0 KHz
    Bit depth : 16 bits
    Compression mode : Lossy
    Stream size : 134 MiB (10%)
    Alignment : Split accross interleaves

    Скриншот c названием фильма

    Скриншоты

    Скачать .torrent

    Скачать торрент-файл бесплатно и на максимальной скорости!

    Как скачивать? · Что такое торрент? · Рейтинг и ограничения

    !ВНИМАНИЕ!
    Сайт не распространяет и не хранит электронные версии произведений, а занимается лишь лишь предоставлением доступа к создаваемому пользователями каталогу ссылок на торрент-файлы, которые содержат только списки хеш-сумм, убедительная просьба с жалобами обращаться напрямую к пользователю. Файлы для обмена на трекере предоставлены пользователями сайта, и администрация не несёт ответственности за их содержание. Просьба не заливать файлы, защищенные авторскими правами, а также файлы нелегального содержания!

    [Профиль] [ЛС]
    Показать сообщения:    
    Ответить на тему

    Текущее время: Сегодня, в 04:10

    Часовой пояс: GMT + 2



    Вы не можете начинать темы
    Вы не можете отвечать на сообщения
    Вы не можете редактировать свои сообщения
    Вы не можете удалять свои сообщения
    Вы не можете голосовать в опросах
    Вы не можете прикреплять файлы к сообщениям
    Вы не можете скачивать файлы