BitTorrentTracker PerecTracker.org
BitTorrentTracker PerecTracker.org
    
Регистрация  ·  Вход
 
 · 
Забыли пароль?

  • Убей меня нежно / Killing Me Softly (Чен Кайге / Chen Kaige) [2002, США, Великобритания, мелодрама, триллер, BDRip-AVC] DVO (R5) + Original + Sub (Rus, Eng)

    Ответить на тему
     
    Автор Сообщение

    Columb

    Создавать темы 11-Авг-2014 22:25

           

    [Цитировать]

    Убей меня нежно / Killing Me SoftlyСтрана: США, Великобритания
    Жанр: Детектив, триллер, эротика
    Год выпуска: 2002
    Продолжительность: 01:40:24
    Перевод: Профессиональный (двухголосый закадровый) R5
    Оригинальная аудиодорожка: Английский
    Cубтитры: русские, английские
    Режиссёр: Чэнь Кайгэ / Chen Kaige
    В ролях:
    Хизер Грэм / Heather Graham, Джозеф Файнс / Joseph Fiennes, Наташа МакЭлхоун / Natascha McElhone, Ульрих Томсен / Ulrich Thomsen, Иэн Харт / Ian Hart, Джейсон Хьюз / Jason Hughes и др.
    Описание:
    Проходя по улице, Элис встретилась взглядом с загадочным незнакомцем. И с этого момента её размеренная жизнь летит ко всем чертям: прямо с дорожного перекрестка она направляется в его квартиру, одержимая животным желанием секса. Рискуя всем, она использует любую возможность сблизиться с таинственным мужчиной, который, однако, не торопится открывать свои секреты...
    Вскоре анонимные письма с угрозами, таинственная запертая кладовая и странное поведение Адама вынуждают любопытную девушку заглянуть в его прошлое. С этого момента её жизнь превращается в кошмар, где пугающие совпадения и шокирующие открытия говорят лишь об одном: любящий муж Элис на самом деле - хладнокровный маньяк-убийца.

    Качество видео: BDRip-AVC
    Формат видео: MKV
    Видео: AVC/H264, High@L4.1, 1128x612 (1,843:1), 23,976 fps, 4455 kbps, 0.269 bit/pixel
    Аудио #1: Русский двухголосый: AC3, 48 kHz, 5.1, 448 kbps
    Аудио #2: Английский оригинал: AC3, 48 kHz, 5.1, 448 kbps
    Субтитры: Русские, Английские-MediaInfo / x264 log

    x264 log (pass 2)

    raw [info]: 1128x612p 1:1 @ 24000/1001 fps (cfr)
    x264 [info]: using SAR=1/1
    x264 [info]: using cpu capabilities: MMX2 SSE2Fast SSSE3 SSE4.2
    x264 [info]: profile High, level 4.1
    x264 [info]: frame I:888 Avg QP:16.06 size: 88558
    x264 [info]: frame P:28819 Avg QP:18.10 size: 40002
    x264 [info]: frame B:114725 Avg QP:20.13 size: 18502
    x264 [info]: consecutive B-frames: 1.5% 2.2% 6.0% 16.7% 14.8% 41.3% 6.0% 1.8% 3.9% 0.7% 1.5% 2.4% 1.2%
    x264 [info]: mb I I16..4: 1.8% 84.6% 13.7%
    x264 [info]: mb P I16..4: 0.7% 19.4% 2.1% P16..4: 27.8% 33.3% 11.7% 1.2% 0.1% skip: 3.7%
    x264 [info]: mb B I16..4: 0.1% 2.4% 0.3% B16..8: 37.8% 24.5% 4.1% direct:10.2% skip:20.6% L0:45.3% L1:41.0% BI:13.7%
    x264 [info]: 8x8 transform intra:86.2% inter:63.9%
    x264 [info]: direct mvs spatial:99.4% temporal:0.6%
    x264 [info]: coded y,uvDC,uvAC intra: 89.4% 82.3% 46.9% inter: 45.0% 38.7% 2.0%
    x264 [info]: i16 v,h,dc,p: 30% 11% 6% 53%
    x264 [info]: i8 v,h,dc,ddl,ddr,vr,hd,vl,hu: 13% 7% 6% 9% 14% 14% 12% 13% 12%
    x264 [info]: i4 v,h,dc,ddl,ddr,vr,hd,vl,hu: 35% 6% 5% 6% 11% 11% 9% 8% 8%
    x264 [info]: i8c dc,h,v,p: 34% 27% 22% 17%
    x264 [info]: Weighted P-Frames: Y:16.3% UV:12.1%
    x264 [info]: ref P L0: 42.7% 7.4% 17.7% 9.2% 6.8% 5.2% 4.2% 2.7% 2.2% 1.7% 0.3% 0.0%
    x264 [info]: ref B L0: 64.4% 15.0% 7.9% 4.3% 3.2% 2.4% 1.9% 0.8% 0.3%
    x264 [info]: ref B L1: 90.0% 10.0%
    x264 [info]: kb/s:4454.30

    MediaInfo

    Формат : Matroska
    Версия формата : Version 4 / Version 2
    Размер файла : 3,75 Гбайт
    Продолжительность : 1 ч. 40 м.
    Общий поток : 5353 Кбит/сек
    Дата кодирования : UTC 2014-08-10 20:04:52
    Программа кодирования : mkvmerge v7.0.0 ('Where We Going') 64bit built on Jun 9 2014 15:16:27
    Библиотека кодирования : libebml v1.3.0 + libmatroska v1.4.1
    DURATION : 01:35:14.881000000
    NUMBER_OF_FRAMES : 893
    NUMBER_OF_BYTES : 23335
    Видео
    Идентификатор : 1
    Формат : AVC
    Формат/Информация : Advanced Video Codec
    Профиль формата : High@L4.1
    Параметр CABAC формата : Да
    Параметр ReFrames формата : 10 кадров
    Идентификатор кодека : V_MPEG4/ISO/AVC
    Продолжительность : 1 ч. 40 м.
    Битрейт : 4455 Кбит/сек
    Ширина : 1128 пикселей
    Высота : 612 пикселей
    Соотношение сторон : 1,85:1
    Режим частоты кадров : Постоянный
    Частота кадров : 23,976 кадра/сек
    Цветовое пространство : YUV
    Субдискретизация насыщенности : 4:2:0
    Битовая глубина : 8 бит
    Тип развёртки : Прогрессивная
    Бит/(Пиксели*Кадры) : 0.269
    Размер потока : 3,05 Гбайт (81%)
    Заголовок : Убей меня нежно / Killing Me Softly (2002) BDRip-AVC © @ndtwice Rip for RuTracker
    Библиотека кодирования : x264 core 142 r2431 ac76440
    Настройки программы : cabac=1 / ref=10 / deblock=1:-3:-3 / analyse=0x3:0x133 / me=umh / subme=11 / psy=1 / psy_rd=1.00:0.00 / mixed_ref=1 / me_range=64 / chroma_me=1 / trellis=2 / 8x8dct=1 / cqm=0 / deadzone=21,11 / fast_pskip=0 / chroma_qp_offset=-2 / threads=3 / lookahead_threads=1 / sliced_threads=0 / nr=0 / decimate=1 / interlaced=0 / bluray_compat=0 / constrained_intra=0 / bframes=12 / b_pyramid=2 / b_adapt=2 / b_bias=0 / direct=3 / weightb=1 / open_gop=0 / weightp=2 / keyint=250 / keyint_min=23 / scenecut=40 / intra_refresh=0 / rc=2pass / mbtree=0 / bitrate=4455 / ratetol=1.0 / qcomp=0.60 / qpmin=0 / qpmax=69 / qpstep=4 / cplxblur=20.0 / qblur=0.5 / ip_ratio=1.30 / pb_ratio=1.30 / aq=1:0.70 / zones=0,790,b=0.3/139290,144432,b=0.3
    Язык : English
    Default : Да
    Forced : Нет
    DURATION : 01:40:24.018000000
    NUMBER_OF_FRAMES : 144432
    NUMBER_OF_BYTES : 3354094913
    Аудио #1
    Идентификатор : 2
    Формат : AC-3
    Формат/Информация : Audio Coding 3
    Расширение режима : CM (complete main)
    Параметр Endianness формата : Big
    Идентификатор кодека : A_AC3
    Продолжительность : 1 ч. 40 м.
    Вид битрейта : Постоянный
    Битрейт : 448 Кбит/сек
    Каналы : 6 каналов
    Расположение каналов : Front: L C R, Side: L R, LFE
    Частота : 48,0 КГц
    Битовая глубина : 16 бит
    Метод сжатия : С потерями
    Размер потока : 322 Мбайт (8%)
    Заголовок : MVO R5
    Язык : Russian
    Default : Да
    Forced : Нет
    Аудио #2
    Идентификатор : 3
    Формат : AC-3
    Формат/Информация : Audio Coding 3
    Расширение режима : CM (complete main)
    Параметр Endianness формата : Big
    Идентификатор кодека : A_AC3
    Продолжительность : 1 ч. 40 м.
    Вид битрейта : Постоянный
    Битрейт : 448 Кбит/сек
    Каналы : 6 каналов
    Расположение каналов : Front: L C R, Side: L R, LFE
    Частота : 48,0 КГц
    Битовая глубина : 16 бит
    Метод сжатия : С потерями
    Размер потока : 322 Мбайт (8%)
    Заголовок : Original
    Язык : English
    Default : Нет
    Forced : Нет
    Текст #1
    Идентификатор : 4
    Формат : UTF-8
    Идентификатор кодека : S_TEXT/UTF8
    Идентификатор кодека/Информация : UTF-8 Plain Text
    Заголовок : Subs Rus
    Язык : Russian
    Default : Да
    Forced : Нет
    Текст #2
    Идентификатор : 5
    Формат : UTF-8
    Идентификатор кодека : S_TEXT/UTF8
    Идентификатор кодека/Информация : UTF-8 Plain Text
    Заголовок : Subs Eng
    Язык : English
    Default : Нет
    Forced : Нет

    Скриншоты

    Сравнение с исходником

    http://screenshotcomparison.com/comparison/87299
    -Исходник: Two-in-one Blu-Ray (24346 kbps)
    -
    Скачать .torrent

    Скачать торрент-файл бесплатно и на максимальной скорости!

    Как скачивать? · Что такое торрент? · Рейтинг и ограничения

    !ВНИМАНИЕ!
    Сайт не распространяет и не хранит электронные версии произведений, а занимается лишь лишь предоставлением доступа к создаваемому пользователями каталогу ссылок на торрент-файлы, которые содержат только списки хеш-сумм, убедительная просьба с жалобами обращаться напрямую к пользователю. Файлы для обмена на трекере предоставлены пользователями сайта, и администрация не несёт ответственности за их содержание. Просьба не заливать файлы, защищенные авторскими правами, а также файлы нелегального содержания!

    [Профиль] [ЛС]
    Показать сообщения:    
    Ответить на тему

    Текущее время: Сегодня, в 20:33

    Часовой пояс: GMT + 2



    Вы не можете начинать темы
    Вы не можете отвечать на сообщения
    Вы не можете редактировать свои сообщения
    Вы не можете удалять свои сообщения
    Вы не можете голосовать в опросах
    Вы не можете прикреплять файлы к сообщениям
    Вы не можете скачивать файлы