BitTorrentTracker PerecTracker.org
BitTorrentTracker PerecTracker.org
    
Регистрация  ·  Вход
 
 · 
Забыли пароль?

  • Сверхъестественное / Supernatural / Сезон: 9 / Серии: 1-23 из 23 (Eric Kripke / Эрик Крипке, Robert Singer / Роберт Сингер) [2012, жасы, фэнтези, триллер, драма, детектив, WEB-DLRip] MVO ([NovaFilm])

    Ответить на тему
     
    Автор Сообщение

    Columb

    Создавать темы 11-Авг-2014 10:09

           

    [Цитировать]

    Сверхъестественное / Supernatural-Год выпуска: 2013
    Страна: США
    Жанр: жасы, фэнтези, триллер, драма, детектив
    Продолжительность: ~00:43:00
    Перевод: Профессиональный (многоголосый закадровый) [NovaFilm]
    Режиссёр: Eric Kripke / Эрик Крипке, Robert Singer / Роберт Сингер
    В ролях: Джаред Падалеки, Дженсен Эклс, Джим Бивер, Миша Коллинз, Марк Шеппард, Джеффри Дин Морган, Женевьев Падалеки, Синди Сэмпсон, Саманта Феррис, Митч Пилледжи
    Описание: Когда-то в городе Лоуренс, штат Канзас, вместе со своими малолетними сыновьями, мирно жила чета Винчестеров. Но буквально за один день жизнь этих людей изменилась навсегда, дом сгорел, в огне пожара погибла Мэри Винчестер — любящая мать и любимая жена. Четырехлетний Дин Винчестер вынес из огня своего шестимесячного братишку и с тех пор стал для него ангелом хранителем, готовым на все ради безопасности младшего брата. А Джон Винчестер из простого рабочего гаража, превратился в смелого охотника за нечистью, одержимого идеей отомстить за смерть жены. С этой мыслью он воспитывал своих сыновей, ставших искусными бойцами, сражающимися плечом к плечу с отцом.
    И именно из Лоуренса началось бесконечное путешествие семьи Винчестеров по бескрайним просторам Америки в поисках людей, которым необходима помощь, кому не откуда ждать подмоги и не на кого рассчитывать, когда в их жизнь железной поступью ворвалось сверхъестественное.
    Ссылка на предыдущие и альтернативные раздачи: http://perectracker.org/tracker.php?f=2404,372&nm=Supernatural

    Качество: WEB-DLRip
    Формат: AVI
    Видео кодек: XviD
    Аудио кодек: AC3
    Видео:XviD,~1110 Кбит/с 720x400,
    Аудио: AC3, 2 канала, 192 Кбит/с

    MediaInfo

    supernatural
    Format : AVI
    Format/Info : Audio Video Interleave
    File size : 400 MiB
    Duration : 42mn 28s
    Overall bit rate : 1 317 Kbps
    Writing application : VirtualDubMod 1.5.10.2 (build 2542/release)
    Writing library : VirtualDubMod build 2542/release
    Video
    ID : 0
    Format : MPEG-4 Visual
    Format profile : Advanced Simple@L5
    Format settings, BVOP : 2
    Format settings, QPel : No
    Format settings, GMC : No warppoints
    Format settings, Matrix : Default (H.263)
    Muxing mode : Packed bitstream
    Codec ID : XVID
    Codec ID/Hint : XviD
    Duration : 42mn 28s
    Bit rate : 1 115 Kbps
    Width : 720 pixels
    Height : 400 pixels
    Display aspect ratio : 16:9
    Frame rate : 23.976 fps
    Color space : YUV
    Chroma subsampling : 4:2:0
    Bit depth : 8 bits
    Scan type : Progressive
    Compression mode : Lossy
    Bits/(Pixel*Frame) : 0.161
    Stream size : 339 MiB (85%)
    Writing library : XviD 64
    Audio
    ID : 1
    Format : AC-3
    Format/Info : Audio Coding 3
    Mode extension : CM (complete main)
    Format settings, Endianness : Big
    Codec ID : 2000
    Duration : 42mn 27s
    Bit rate mode : Constant
    Bit rate : 192 Kbps
    Channel(s) : 2 channels
    Channel positions : Front: L R
    Sampling rate : 48.0 KHz
    Bit depth : 16 bits
    Compression mode : Lossy
    Stream size : 58.3 MiB (15%)
    Alignment : Split accross interleaves
    Interleave, duration : 42 ms (1.00 video frame)
    Interleave, preload duration : 500 ms

    Скриншоты


    Скачать .torrent

    Скачать торрент-файл бесплатно и на максимальной скорости!

    Как скачивать? · Что такое торрент? · Рейтинг и ограничения

    !ВНИМАНИЕ!
    Сайт не распространяет и не хранит электронные версии произведений, а занимается лишь лишь предоставлением доступа к создаваемому пользователями каталогу ссылок на торрент-файлы, которые содержат только списки хеш-сумм, убедительная просьба с жалобами обращаться напрямую к пользователю. Файлы для обмена на трекере предоставлены пользователями сайта, и администрация не несёт ответственности за их содержание. Просьба не заливать файлы, защищенные авторскими правами, а также файлы нелегального содержания!

    [Профиль] [ЛС]
    Показать сообщения:    
    Ответить на тему

    Текущее время: Сегодня, в 20:47

    Часовой пояс: GMT + 2



    Вы не можете начинать темы
    Вы не можете отвечать на сообщения
    Вы не можете редактировать свои сообщения
    Вы не можете удалять свои сообщения
    Вы не можете голосовать в опросах
    Вы не можете прикреплять файлы к сообщениям
    Вы не можете скачивать файлы