BitTorrentTracker PerecTracker.org
BitTorrentTracker PerecTracker.org
    
Регистрация  ·  Вход
 
 · 
Забыли пароль?

  • Пульс / Pulse (Джим Сонзеро / Jim Sonzero) [2006 г., США, ужасы, фантастика, фэнтези, триллер, детектив, BDRip 720p] Dub + Original Eng + Sub (Rus, Eng)

    Ответить на тему
     
    Автор Сообщение

    Columb

    Создавать темы 11-Авг-2014 10:02

           

    [Цитировать]

    -Пульс / Pulse«Вторжение началось»Страна: США
    Студия: Distant Horizons, Neo Art & Logic, The Weinstein Company LLC
    Жанр: Ужасы, фантастика, фэнтези, триллер, детектив
    Год выпуска: 2006
    Продолжительность: 01:28:10-Перевод: Профессиональный (полное дублирование)
    Оригинальная аудиодорожка: английский
    Cубтитры: русские, английские
    Режиссер: Джим Сонзеро / Jim Sonzero
    В ролях: Кристен Белл, Иен Сомерхолдер, Кристина Милиан, Рик Гонсалес, Джонатан Такер, Сэмм Ливайн, Октавия Спенсер, Рон Рифкин, Джозеф Гатт, Кел О’Нил, Зэк Гренье, Рики Линдхоум
    Описание: Представьте себе, что беспроводные технологии могут связывать человека не только с кем-либо находящимся на другом конце земного шара, но и с другим миром. Миром мертвых. Представьте, что ваш сотовый телефон или ваша электронная почта - дверь. И когда вы звоните по мобильному, или работаете с e-mail, эта дверь открывается, и в наш мир проникают они. Они уже умерли. И они могут сделать так, что умрете и вы. Спрятаться негде, убежать невозможно. Вы уже заражены.-
    Сэмпл: скачать-Релиз от -
    Автор рипа: Elheym
    Качество: BDRip 720p (источник: / Blu-ray Remux / 1080p)
    Контейнер: MKV
    Видео: 1280x534 (2.40:1), 23.976 fps, MPEG-4 AVC, ~6900 kbps avg, 0.421 bit/pixel
    Аудио #1: Русский: АС3, 5.1, 48 kHz, ~640 Кбит/с | Профессиональный (полное дублирование) |
    Аудио #2: Английский: АС3, 5.1, 48 kHz, ~640 Кбит/с | Оригинал |
    Субтитры: Русские (полные), Английские (полные, полные SDH)
    Главы: Присутствуют, сохранены оригинальные
    Размер: 5.03 GB

    MediaInfo

    Уникальный идентификатор : 217797127747096964033419621430664737750 (0xA3DA337595F5AFE4BF440A77C94DB3D6)
    Полное имя : Pulse.2006.720p.BluRay.Rus.Eng.-HQCLUB.mkv
    Формат : Matroska
    Версия формата : Version 2
    Размер файла : 5,04 Гбайт
    Продолжительность : 1 ч. 28 м.
    Общий поток : 8179 Кбит/сек
    Дата кодирования : UTC 2014-08-10 14:33:03
    Программа кодирования : mkvmerge v5.2.0 ('I can't explain') built on Dec 18 2011 18:12:03
    Библиотека кодирования : libebml v1.2.3 + libmatroska v1.3.0
    Видео
    Идентификатор : 1
    Формат : AVC
    Формат/Информация : Advanced Video Codec
    Профиль формата : High@L4.1
    Параметр CABAC формата : Да
    Параметр ReFrames формата : 10 кадров
    Идентификатор кодека : V_MPEG4/ISO/AVC
    Продолжительность : 1 ч. 28 м.
    Битрейт : 6900 Кбит/сек
    Ширина : 1280 пикселей
    Высота : 534 пикселя
    Соотношение сторон : 2,40:1
    Режим частоты кадров : Постоянный
    Частота кадров : 23,976 кадра/сек
    Цветовое пространство : YUV
    Субдискретизация насыщенности : 4:2:0
    Битовая глубина : 8 бит
    Тип развёртки : Прогрессивная
    Бит/(Пиксели*Кадры) : 0.421
    Размер потока : 4,15 Гбайт (82%)
    Заголовок : Пульс / Pulse (2006) BDRip 720p by HQCLUB [Elheym]
    Библиотека кодирования : x264 core 142 r2453 ea0ca51
    Настройки программы : cabac=1 / ref=11 / deblock=1:-3:-2 / analyse=0x3:0x113 / me=umh / subme=11 / psy=1 / psy_rd=1.06:0.05 / mixed_ref=1 / me_range=32 / chroma_me=1 / trellis=2 / 8x8dct=1 / cqm=0 / deadzone=21,11 / fast_pskip=1 / chroma_qp_offset=-5 / threads=6 / lookahead_threads=1 / sliced_threads=0 / nr=0 / decimate=1 / interlaced=0 / bluray_compat=0 / constrained_intra=0 / bframes=15 / b_pyramid=1 / b_adapt=2 / b_bias=0 / direct=3 / weightb=1 / open_gop=0 / weightp=2 / keyint=240 / keyint_min=23 / scenecut=40 / intra_refresh=0 / rc_lookahead=40 / rc=2pass / mbtree=0 / bitrate=6900 / ratetol=1.0 / qcomp=0.70 / qpmin=10 / qpmax=69 / qpstep=4 / cplxblur=20.0 / qblur=0.5 / vbv_maxrate=50000 / vbv_bufsize=62500 / nal_hrd=none / filler=0 / ip_ratio=1.40 / pb_ratio=1.30 / aq=1:0.80
    Язык : English
    Default : Да
    Forced : Нет
    Аудио #1
    Идентификатор : 2
    Формат : AC-3
    Формат/Информация : Audio Coding 3
    Расширение режима : CM (complete main)
    Параметр Endianness формата : Big
    Идентификатор кодека : A_AC3
    Продолжительность : 1 ч. 28 м.
    Вид битрейта : Постоянный
    Битрейт : 640 Кбит/сек
    Каналы : 6 каналов
    Расположение каналов : Front: L C R, Side: L R, LFE
    Частота : 48,0 КГц
    Битовая глубина : 16 бит
    Метод сжатия : С потерями
    Размер потока : 404 Мбайт (8%)
    Заголовок : АС3 5.1 @ 640 kbps - Dub
    Язык : Russian
    Default : Нет
    Forced : Нет
    Аудио #2
    Идентификатор : 3
    Формат : AC-3
    Формат/Информация : Audio Coding 3
    Расширение режима : CM (complete main)
    Параметр Endianness формата : Big
    Идентификатор кодека : A_AC3
    Продолжительность : 1 ч. 28 м.
    Вид битрейта : Постоянный
    Битрейт : 640 Кбит/сек
    Каналы : 6 каналов
    Расположение каналов : Front: L C R, Side: L R, LFE
    Частота : 48,0 КГц
    Битовая глубина : 16 бит
    Метод сжатия : С потерями
    Размер потока : 404 Мбайт (8%)
    Заголовок : АС3 5.1 @ 640 kbps - Original
    Язык : English
    Default : Нет
    Forced : Нет
    Текст #1
    Идентификатор : 4
    Формат : UTF-8
    Идентификатор кодека : S_TEXT/UTF8
    Идентификатор кодека/Информация : UTF-8 Plain Text
    Заголовок : Full
    Язык : Russian
    Default : Нет
    Forced : Нет
    Текст #2
    Идентификатор : 5
    Формат : UTF-8
    Идентификатор кодека : S_TEXT/UTF8
    Идентификатор кодека/Информация : UTF-8 Plain Text
    Заголовок : Full
    Язык : English
    Default : Нет
    Forced : Нет
    Текст #3
    Идентификатор : 6
    Формат : UTF-8
    Идентификатор кодека : S_TEXT/UTF8
    Идентификатор кодека/Информация : UTF-8 Plain Text
    Заголовок : Full SDH
    Язык : English
    Default : Нет
    Forced : Нет
    Меню
    00:00:00.000 : :Chapter 01
    00:06:08.409 : :Chapter 02
    00:11:35.361 : :Chapter 03
    00:16:50.592 : :Chapter 04
    00:20:42.616 : :Chapter 05
    00:25:13.053 : :Chapter 06
    00:30:08.765 : :Chapter 07
    00:37:05.348 : :Chapter 08
    00:40:38.727 : :Chapter 09
    00:44:49.520 : :Chapter 10
    00:50:19.850 : :Chapter 11
    00:53:03.430 : :Chapter 12
    00:56:49.948 : :Chapter 13
    01:02:08.266 : :Chapter 14
    01:09:31.208 : :Chapter 15
    01:18:45.846 : :Chapter 16
    01:28:09.867 : :Chapter 17

    x264 log

    x264 [info]: frame I:837 Avg QP:15.08 size: 99981
    x264 [info]: frame P:26688 Avg QP:16.34 size: 55635
    x264 [info]: frame B:99313 Avg QP:18.58 size: 30128
    x264 [info]: consecutive B-frames: 2.7% 2.9% 8.2% 10.7% 14.4% 44.3% 5.4% 1.8% 1.7% 2.0% 1.7% 1.3% 0.9% 1.1% 0.4% 0.5%
    x264 [info]: ref P L0: 50.7% 8.7% 17.0% 7.6% 4.9% 3.6% 2.8% 1.7% 1.5% 1.3% 0.2% 0.0%
    x264 [info]: ref B L0: 72.3% 12.6% 6.4% 2.9% 2.0% 1.5% 1.1% 0.7% 0.4%
    x264 [info]: ref B L1: 89.6% 10.4%

    Скриншоты

    Скачать .torrent

    Скачать торрент-файл бесплатно и на максимальной скорости!

    Как скачивать? · Что такое торрент? · Рейтинг и ограничения

    !ВНИМАНИЕ!
    Сайт не распространяет и не хранит электронные версии произведений, а занимается лишь лишь предоставлением доступа к создаваемому пользователями каталогу ссылок на торрент-файлы, которые содержат только списки хеш-сумм, убедительная просьба с жалобами обращаться напрямую к пользователю. Файлы для обмена на трекере предоставлены пользователями сайта, и администрация не несёт ответственности за их содержание. Просьба не заливать файлы, защищенные авторскими правами, а также файлы нелегального содержания!

    [Профиль] [ЛС]
    Показать сообщения:    
    Ответить на тему

    Текущее время: Сегодня, в 09:53

    Часовой пояс: GMT + 2



    Вы не можете начинать темы
    Вы не можете отвечать на сообщения
    Вы не можете редактировать свои сообщения
    Вы не можете удалять свои сообщения
    Вы не можете голосовать в опросах
    Вы не можете прикреплять файлы к сообщениям
    Вы не можете скачивать файлы