BitTorrentTracker PerecTracker.org
BitTorrentTracker PerecTracker.org
    
Регистрация  ·  Вход
 
 · 
Забыли пароль?

  • Современные чудеса: 20-й сезон / Mega Marvels Countdown (Брюс Нэш / Bruce Nash) [2013, Док. сериал, SATRip]

    Ответить на тему
     
    Автор Сообщение

    Columb

    Создавать темы 11-Авг-2014 09:53

           

    [Цитировать]

    Современные чудеса: 20-й сезон / Mega Marvels Countdown
    Дата/Год выпуска: 2013
    Страна: США
    Жанр: Док. сериал
    Продолжительность: 02:47:08
    Перевод: Субтитры
    Русские субтитры: есть
    Формат субтитров: hardsub (неотключаемые)
    Оригинальная аудиодорожка: английский
    Режиссер: Брюс Нэш / Bruce Nash
    Описание: 20-ый сезон цикла Modern Marvels. Он называется Mega Marvels Countdown, поскольку авторы здесь определяют топ-десятку по каждой теме:
    1. Mega Snack Countdown / Закуски
    2. Super Strong Countdown / Самые сильные
    3. Amazing Job Countdown / Удивительные профессии
    4. Strangest Countdown / Самые странные

    Примечание: Сериал раздается одним файлом.
    SATRip от : Твид
    Доп. информация: Любезно предоставлено клубом Fenix

    Сэмпл: http://multi-up.com/991658
    качество: SATRip
    формат: AVI
    Видео: XviD, 1074 kb/s, 640x416, 25 fps, 0.161 bits/pixel
    Аудио: 0x0055(MP3) ID'd as MPEG-1 Layer 3, 128 kb/s (2/ch, stereo) CBR, 48000 Hz - английский

    MediaInfo

    ОбщееПолное имя : D:\FILMS\Sovremennye chudesa_20-j sezon.SAT-rip.by.Твид.fenixclub.aviФормат : AVIФормат/Информация : Audio Video InterleaveРазмер файла : 1,41 ГбайтПродолжительность : 2 ч. 47 м.Общий поток : 1208 Кбит/сек
    ВидеоИдентификатор : 0Формат : MPEG-4 VisualПрофиль формата : Advanced Simple@L5Параметр BVOP формата : 2Параметр QPel формата : НетПараметр GMC формата : Без точки переходаПараметр матрицы формата : Default (H.263)Идентификатор кодека : XVIDИдентификатор кодека/Подсказка : XviDПродолжительность : 2 ч. 47 м.Битрейт : 1071 Кбит/секШирина : 640 пикселейВысота : 416 пикселейСоотношение сторон : 3:2Частота кадров : 25,000 кадров/секЦветовое пространство : YUVСубдискретизация насыщенности : 4:2:0Битовая глубина : 8 битТип развёртки : ПрогрессивнаяМетод сжатия : С потерямиБит/(Пиксели*Кадры) : 0.161Размер потока : 1,25 Гбайт (89%)Библиотека кодирования : XviD 1.1.2 (UTC 2006-11-01)
    АудиоИдентификатор : 1Формат : MPEG AudioВерсия формата : Version 1Профиль формата : Layer 3Режим : Joint stereoРасширение режима : MS StereoИдентификатор кодека : 55Идентификатор кодека/Подсказка : MP3Продолжительность : 2 ч. 47 м.Вид битрейта : ПостоянныйБитрейт : 128 Кбит/секКаналы : 2 каналаЧастота : 48,0 КГцМетод сжатия : С потерямиРазмер потока : 153 Мбайт (11%)Выравнивание : Разделение по промежуткамПродолжительность промежутка : 40 мс. (1,00 видеокадр)Время предзагрузки промежутка : 500 мс.

    Скриншоты

    Скачать .torrent

    Скачать торрент-файл бесплатно и на максимальной скорости!

    Как скачивать? · Что такое торрент? · Рейтинг и ограничения

    !ВНИМАНИЕ!
    Сайт не распространяет и не хранит электронные версии произведений, а занимается лишь лишь предоставлением доступа к создаваемому пользователями каталогу ссылок на торрент-файлы, которые содержат только списки хеш-сумм, убедительная просьба с жалобами обращаться напрямую к пользователю. Файлы для обмена на трекере предоставлены пользователями сайта, и администрация не несёт ответственности за их содержание. Просьба не заливать файлы, защищенные авторскими правами, а также файлы нелегального содержания!

    [Профиль] [ЛС]
    Показать сообщения:    
    Ответить на тему

    Текущее время: Сегодня, в 17:21

    Часовой пояс: GMT + 2



    Вы не можете начинать темы
    Вы не можете отвечать на сообщения
    Вы не можете редактировать свои сообщения
    Вы не можете удалять свои сообщения
    Вы не можете голосовать в опросах
    Вы не можете прикреплять файлы к сообщениям
    Вы не можете скачивать файлы