BitTorrentTracker PerecTracker.org
BitTorrentTracker PerecTracker.org
    
Регистрация  ·  Вход
 
 · 
Забыли пароль?

  • Дорога в Редемпшн / Redemption Road (Марио Ван Пиблз / Mario Van Peebles) [2010, США, драма, HDTV 1080i] MVO

    Ответить на тему
     
    Автор Сообщение

    Columb

    Создавать темы 10-Авг-2014 14:18

           

    [Цитировать]

    Дорога в Редемпшн / Redemption RoadСтрана: США
    Жанр: драма
    Год выпуска: 2010
    Продолжительность: 01:31:25
    Перевод: Профессиональный (многоголосый закадровый)
    Cубтитры: нет
    Режиссер: Марио Ван Пиблз / Mario Van Peebles
    В ролях: Тэрин Мэннинг, Майкл Кларк Дункан, Киле Санчес, Люк Перри, Том Скеррит, Мелвин Ван Пиблз, Линдс Эдвардс, Джет Юргенсмейер, Джеймс Кук, Катрин МакГухан
    Описание: Джефферсон Бэйли — большой поклонник блюза, талантливый автор-исполнитель из Техаса, который прекратил свою карьеру из-за страха перед сценой. После разрыва с женой, которая изменила ему, Бэйли неохотно решает присоединиться к незнакомцу Оджи и отправиться вместе с ним в долгую поездку в Хантсвилл, город в Алабаме, где Джефферсон когда-то жил.
    Сэмпл: http://multi-up.com/991634
    Тип релиза: HDTV 1080i
    Контейнер: TS
    Видео: AVC/H.264, PAL, 1920x1080 (16:9), 9071 Кбит/сек, 25.000 fps
    Аудио: русский, MP-2, 48000 Hz, 192 Кбит/сек, 2 ch

    MediaInfo

    Видео
    Идентификатор : 224 (0xE0)
    Идентификатор меню : 1 (0x1)
    Формат : AVC
    Формат/Информация : Advanced Video Codec
    Профиль формата : High@L4.1
    Параметр CABAC формата : Да
    Параметр ReFrames формата : 3 кадра
    Идентификатор кодека : 27
    Продолжительность : 1 ч. 31 м.
    Вид битрейта : Постоянный
    Битрейт : 9071 Кбит/сек
    Ширина : 1920 пикселей
    Высота : 1080 пикселей
    Соотношение сторон : 16:9
    Частота кадров : 25,000 кадров/сек
    Стандарт вещания : PAL
    Цветовое пространство : YUV
    Субдискретизация насыщенности : 4:2:0
    Битовая глубина : 8 бит
    Тип развёртки : Чересстрочная
    Порядок развёртки : Верхнее поле первое
    Бит/(Пиксели*Кадры) : 0.175
    Размер потока : 5,68 Гбайт (93%)
    Основные цвета : BT.709
    Характеристики трансфера : BT.709
    Коэффициенты матрицы : BT.709
    Аудио
    Идентификатор : 192 (0xC0)
    Идентификатор меню : 1 (0x1)
    Формат : MPEG Audio
    Версия формата : Version 1
    Профиль формата : Layer 2
    Идентификатор кодека : 3
    Продолжительность : 1 ч. 31 м.
    Вид битрейта : Постоянный
    Битрейт : 192 Кбит/сек
    Каналы : 2 канала
    Частота : 48,0 КГц
    Метод сжатия : С потерями
    Размер потока : 126 Мбайт (2%)

    Скриншот с названием фильма

    Скриншоты

    Скачать .torrent

    Скачать торрент-файл бесплатно и на максимальной скорости!

    Как скачивать? · Что такое торрент? · Рейтинг и ограничения

    !ВНИМАНИЕ!
    Сайт не распространяет и не хранит электронные версии произведений, а занимается лишь лишь предоставлением доступа к создаваемому пользователями каталогу ссылок на торрент-файлы, которые содержат только списки хеш-сумм, убедительная просьба с жалобами обращаться напрямую к пользователю. Файлы для обмена на трекере предоставлены пользователями сайта, и администрация не несёт ответственности за их содержание. Просьба не заливать файлы, защищенные авторскими правами, а также файлы нелегального содержания!

    [Профиль] [ЛС]
    Показать сообщения:    
    Ответить на тему

    Текущее время: Сегодня, в 08:21

    Часовой пояс: GMT + 2



    Вы не можете начинать темы
    Вы не можете отвечать на сообщения
    Вы не можете редактировать свои сообщения
    Вы не можете удалять свои сообщения
    Вы не можете голосовать в опросах
    Вы не можете прикреплять файлы к сообщениям
    Вы не можете скачивать файлы