Register  ·  Log in
Forgot password?

  • Тихий вор / The Silent Thief (Дженнифер Клэри / Jennifer Clary) [2012, США, триллер, HDRip] VO (datynet)

    Reply to topic
    Author Message


    Post 10-Aug-2014 14:00



    Тихий вор / The Silent Thief
    Страна: США
    Жанр: триллер
    Год выпуска: 2012
    Продолжительность: 01:41:45
    Перевод: Одноголосый закадровый datynet
    Cубтитры: нет
    Оригинальная аудиодорожка: нет
    Режиссер: Дженнифер Клэри / Jennifer Clary
    В ролях: Тоби Хемингуэй, Коди Лонго, Скаут Тейлор-Комптон, Джон Биллингсли, Рейд Юинг, Фрэнсис Фишер, Курт Фуллер, Джошуа Пенс
    Описание: Семья Хендерсонов охотно сдает в аренду свободную комнату в своем доме молодому человеку по имени Бреннан. Скромный, вежливый, обходительный парень быстро завоевывает симпатию большей части семейства. Однако Хендерсоны не ведают, что на самом деле приютили вора. Вора, крадущего чужие жизни…
    Доп. информация:

    Качество видео: HDRip
    Формат видео: AVI
    Видео: 640x272 (2.35:1), 23.976 fps, XviD MPEG-4 ~821 kbps avg, 0.20 bit/pixel
    Аудио: 44.100 kHz, MPEG Layer 3, 2 ch, ~192.00 kbps avg


    Complete name : C:\Users\Вика\Desktop\The.Silent.Thief.2012.HDRip.avi
    Format : AVI
    Format/Info : Audio Video Interleave
    File size : 744 MiB
    Duration : 1h 41mn
    Overall bit rate : 1 023 Kbps
    Writing library : VirtualDub build 34753/release
    ID : 0
    Format : MPEG-4 Visual
    Format profile : Advanced Simple@L5
    Format settings, BVOP : Yes
    Format settings, QPel : No
    Format settings, GMC : No warppoints
    Format settings, Matrix : Default (H.263)
    Codec ID : XVID
    Codec ID/Hint : XviD
    Duration : 1h 41mn
    Bit rate : 821 Kbps
    Width : 640 pixels
    Height : 272 pixels
    Display aspect ratio : 2.35:1
    Frame rate : 23.976 fps
    Color space : YUV
    Chroma subsampling : 4:2:0
    Bit depth : 8 bits
    Scan type : Progressive
    Compression mode : Lossy
    Bits/(Pixel*Frame) : 0.197
    Stream size : 598 MiB (80%)
    Writing library : XviD 65
    ID : 1
    Format : MPEG Audio
    Format version : Version 1
    Format profile : Layer 3
    Codec ID : 55
    Codec ID/Hint : MP3
    Duration : 1h 41mn
    Bit rate mode : Constant
    Bit rate : 192 Kbps
    Channel count : 2 channels
    Sampling rate : 44.1 KHz
    Compression mode : Lossy
    Stream size : 140 MiB (19%)
    Alignment : Split accross interleaves
    Interleave, duration : 42 ms (1.00 video frame)
    Interleave, preload duration : 500 ms


    Download .torrent

    Download free and at maximum speed!

    How to Download? · What is a torrent? · Ratings and Limitations

    The site does not extend and does not store electronic(digital) versions of products, and only gives access to a reference catalogue created by users on torrent-files which contain only lists of the hash-sums, the earnest entreaty, with complaints(abuse) to access directly to the user. Files for an exchange on tracker are given by users of a site, and the administration does not bear the responsibility for their maintenance. The request to not fill in the files protected by copyrights, and also files of the illegal maintenance!

    [Profile] [PM]
    Display posts from previous:    
    Reply to topic

    The time now is: Today 07:23

    All times are GMT + 3 Hours

    You cannot post new topics in this forum
    You cannot reply to topics in this forum
    You cannot edit your posts in this forum
    You cannot delete your posts in this forum
    You cannot vote in polls in this forum
    You cannot attach files in this forum
    You cannot download files in this forum