BitTorrentTracker PerecTracker.org
BitTorrentTracker PerecTracker.org
    
Регистрация  ·  Вход
 
 · 
Забыли пароль?

  • Тихий вор / The Silent Thief (Дженнифер Клэри / Jennifer Clary) [2012, США, триллер, HDRip] VO (datynet)

    Ответить на тему
     
    Автор Сообщение

    Columb

    Создавать темы 10-Авг-2014 13:00

           

    [Цитировать]

    Тихий вор / The Silent Thief
    Страна: США
    Жанр: триллер
    Год выпуска: 2012
    Продолжительность: 01:41:45
    Перевод: Одноголосый закадровый datynet
    Cубтитры: нет
    Оригинальная аудиодорожка: нет
    Режиссер: Дженнифер Клэри / Jennifer Clary
    В ролях: Тоби Хемингуэй, Коди Лонго, Скаут Тейлор-Комптон, Джон Биллингсли, Рейд Юинг, Фрэнсис Фишер, Курт Фуллер, Джошуа Пенс
    Описание: Семья Хендерсонов охотно сдает в аренду свободную комнату в своем доме молодому человеку по имени Бреннан. Скромный, вежливый, обходительный парень быстро завоевывает симпатию большей части семейства. Однако Хендерсоны не ведают, что на самом деле приютили вора. Вора, крадущего чужие жизни…
    Доп. информация:

    Сэмпл: http://multi-up.com/991594
    Качество видео: HDRip
    Формат видео: AVI
    Видео: 640x272 (2.35:1), 23.976 fps, XviD MPEG-4 ~821 kbps avg, 0.20 bit/pixel
    Аудио: 44.100 kHz, MPEG Layer 3, 2 ch, ~192.00 kbps avg

    MediaInfo

    General
    Complete name : C:\Users\Вика\Desktop\The.Silent.Thief.2012.HDRip.avi
    Format : AVI
    Format/Info : Audio Video Interleave
    File size : 744 MiB
    Duration : 1h 41mn
    Overall bit rate : 1 023 Kbps
    Writing library : VirtualDub build 34753/release
    Video
    ID : 0
    Format : MPEG-4 Visual
    Format profile : Advanced Simple@L5
    Format settings, BVOP : Yes
    Format settings, QPel : No
    Format settings, GMC : No warppoints
    Format settings, Matrix : Default (H.263)
    Codec ID : XVID
    Codec ID/Hint : XviD
    Duration : 1h 41mn
    Bit rate : 821 Kbps
    Width : 640 pixels
    Height : 272 pixels
    Display aspect ratio : 2.35:1
    Frame rate : 23.976 fps
    Color space : YUV
    Chroma subsampling : 4:2:0
    Bit depth : 8 bits
    Scan type : Progressive
    Compression mode : Lossy
    Bits/(Pixel*Frame) : 0.197
    Stream size : 598 MiB (80%)
    Writing library : XviD 65
    Audio
    ID : 1
    Format : MPEG Audio
    Format version : Version 1
    Format profile : Layer 3
    Codec ID : 55
    Codec ID/Hint : MP3
    Duration : 1h 41mn
    Bit rate mode : Constant
    Bit rate : 192 Kbps
    Channel count : 2 channels
    Sampling rate : 44.1 KHz
    Compression mode : Lossy
    Stream size : 140 MiB (19%)
    Alignment : Split accross interleaves
    Interleave, duration : 42 ms (1.00 video frame)
    Interleave, preload duration : 500 ms

    Скриншоты

    Скачать .torrent

    Скачать торрент-файл бесплатно и на максимальной скорости!

    Как скачивать? · Что такое торрент? · Рейтинг и ограничения

    !ВНИМАНИЕ!
    Сайт не распространяет и не хранит электронные версии произведений, а занимается лишь лишь предоставлением доступа к создаваемому пользователями каталогу ссылок на торрент-файлы, которые содержат только списки хеш-сумм, убедительная просьба с жалобами обращаться напрямую к пользователю. Файлы для обмена на трекере предоставлены пользователями сайта, и администрация не несёт ответственности за их содержание. Просьба не заливать файлы, защищенные авторскими правами, а также файлы нелегального содержания!

    [Профиль] [ЛС]
    Показать сообщения:    
    Ответить на тему

    Текущее время: Сегодня, в 00:06

    Часовой пояс: GMT + 2



    Вы не можете начинать темы
    Вы не можете отвечать на сообщения
    Вы не можете редактировать свои сообщения
    Вы не можете удалять свои сообщения
    Вы не можете голосовать в опросах
    Вы не можете прикреплять файлы к сообщениям
    Вы не можете скачивать файлы