BitTorrentTracker PerecTracker.org
BitTorrentTracker PerecTracker.org
    
Регистрация  ·  Вход
 
 · 
Забыли пароль?

  • Галлоуз Хилл / Gallows Hill / The Damned (Виктор Гарсия / Víctor García) [2014, США, ужасы, триллер, детектив, WEB-DLRip] VO (datynet) + Original Eng

    Ответить на тему
     
    Автор Сообщение

    Columb

    Создавать темы 10-Авг-2014 11:45

           

    [Цитировать]

    Галлоуз Хилл / Gallows Hill / The Damned
    Страна: США
    Жанр: ужасы, триллер, детектив
    Год выпуска: 2014
    Продолжительность: 01:27:26
    Перевод: Одноголосый закадровый datynet
    Cубтитры: Нет
    Оригинальная аудиодорожка: английский
    Режиссер: Виктор Гарсия / Víctor García
    В ролях: Питер Фачинелли, София Майлс, Наталия Рамос, Каролина Гуерра, Себастьян Мартинез, Густаво Ангарита, Хуан Пабло Гамбоа, Джульета Салазар, Татьяна Рентериа
    Описание: Герой, вместе со своей невестой, направляется на встречу со своей дочерью от прежнего брака, чтобы восстановить с ней отношения после смерти ее матери. По дороге они попадают в автомобильную аварию и останавливаются отдохнуть в гостинице, расположенной весьма удаленно от цивилизации. Там они обнаруживают, что хозяин гостиницы держит в подвале некую девушку, освободив которую герои навлекают на себя большие неприятности…
    Доп. информация:

    Сэмпл: http://multi-up.com/991577
    Качество видео: WEB-DLRip
    Формат видео: AVI
    Видео: 720x304 (2.37:1), 23.976 fps, XviD MPEG-4 ~1695 kbps avg, 0.32 bit/pixel
    Аудио: 44.100 kHz, MPEG Layer 3, 2 ch, ~192.00 kbps avg Rus
    Аудио 2: 48 kHz, AC3 Dolby Digital, 3/2 (L,C,R,l,r) + LFE ch, ~320 kbps Eng

    MediaInfo

    General
    Complete name : C:\Users\Вика\Desktop\Gallows.Hill.2013.WEB-DLRip.avi
    Format : AVI
    Format/Info : Audio Video Interleave
    File size : 1.36 GiB
    Duration : 1h 27mn
    Overall bit rate : 2 223 Kbps
    Writing application : VirtualDubMod 1.5.10.3 | www.virtualdub-fr.org || (build 2550/release)
    Writing library : VirtualDubMod build 2550/release
    Video
    ID : 0
    Format : MPEG-4 Visual
    Format profile : Advanced Simple@L5
    Format settings, BVOP : Yes
    Format settings, QPel : No
    Format settings, GMC : No warppoints
    Format settings, Matrix : Default (H.263)
    Codec ID : XVID
    Codec ID/Hint : XviD
    Duration : 1h 27mn
    Bit rate : 1 696 Kbps
    Width : 720 pixels
    Height : 304 pixels
    Display aspect ratio : 2.35:1
    Frame rate : 23.976 fps
    Color space : YUV
    Chroma subsampling : 4:2:0
    Bit depth : 8 bits
    Scan type : Progressive
    Compression mode : Lossy
    Bits/(Pixel*Frame) : 0.323
    Stream size : 1.04 GiB (76%)
    Writing library : XviD 64
    Audio #1
    ID : 1
    Format : MPEG Audio
    Format version : Version 1
    Format profile : Layer 3
    Codec ID : 55
    Codec ID/Hint : MP3
    Duration : 1h 27mn
    Bit rate mode : Constant
    Bit rate : 192 Kbps
    Channel count : 2 channels
    Sampling rate : 44.1 KHz
    Compression mode : Lossy
    Stream size : 120 MiB (9%)
    Alignment : Split accross interleaves
    Interleave, duration : 42 ms (1.00 video frame)
    Interleave, preload duration : 500 ms
    Audio #2
    ID : 2
    Format : AC-3
    Format/Info : Audio Coding 3
    Mode extension : CM (complete main)
    Format settings, Endianness : Big
    Codec ID : 2000
    Duration : 1h 27mn
    Bit rate mode : Constant
    Bit rate : 320 Kbps
    Channel count : 6 channels
    Channel positions : Front: L C R, Side: L R, LFE
    Sampling rate : 48.0 KHz
    Bit depth : 16 bits
    Compression mode : Lossy
    Stream size : 200 MiB (14%)
    Alignment : Split accross interleaves
    Interleave, duration : 42 ms (1.00 video frame)
    Interleave, preload duration : 500 ms

    Скриншоты

    Скачать .torrent

    Скачать торрент-файл бесплатно и на максимальной скорости!

    Как скачивать? · Что такое торрент? · Рейтинг и ограничения

    !ВНИМАНИЕ!
    Сайт не распространяет и не хранит электронные версии произведений, а занимается лишь лишь предоставлением доступа к создаваемому пользователями каталогу ссылок на торрент-файлы, которые содержат только списки хеш-сумм, убедительная просьба с жалобами обращаться напрямую к пользователю. Файлы для обмена на трекере предоставлены пользователями сайта, и администрация не несёт ответственности за их содержание. Просьба не заливать файлы, защищенные авторскими правами, а также файлы нелегального содержания!

    [Профиль] [ЛС]
    Показать сообщения:    
    Ответить на тему

    Текущее время: Сегодня, в 04:20

    Часовой пояс: GMT + 2



    Вы не можете начинать темы
    Вы не можете отвечать на сообщения
    Вы не можете редактировать свои сообщения
    Вы не можете удалять свои сообщения
    Вы не можете голосовать в опросах
    Вы не можете прикреплять файлы к сообщениям
    Вы не можете скачивать файлы