BitTorrentTracker PerecTracker.org
BitTorrentTracker PerecTracker.org
    
Регистрация  ·  Вход
 
 · 
Забыли пароль?

  • Воин / Warrior (Гэвин О’Коннор / Gavin O'Connor) [2011, США, боевик, драма, спорт, BDRip] MVO (R5) + Subs (Rus, Eng) + Original Eng

    Ответить на тему
     
    Автор Сообщение

    Columb

    Создавать темы 10-Авг-2014 10:58

           

    [Цитировать]

    Воин / Warrior
    «Дерись за семью. Борись за страну»
    -Страна: США
    Жанр: боевик, драма, спорт
    Год выпуска: 2011
    Продолжительность: 02:19:54
    Перевод: Профессиональный (многоголосый закадровый) R5
    Cубтитры: RUS (R5) | ENG (full, SDH) | *srt
    Оригинальная звуковая дорожка [English]-Режиссер:
    Гэвин О’Коннор / Gavin O'Connor-В ролях:
    Джоэл Эдгертон (Brendan Conlon), Том Харди (Tommy Conlon), Ник Нолти (Paddy Conlon), Дженнифер Моррисон (Tess Conlon), Фрэнк Грилло (Frank Campana), Кевин Данн (Principal Zito), Максимилианно Эрнандез (Colt Boyd).-Описание:
    Томми Конлон — молодой боец, вернувшийся домой после долгого отсутствия, чтобы приготовиться к участию в большом турнире. Отец-пьяница, в прошлом талантливый боксер, берется тренировать сына.-
    MPAA: - Детям до 13 лет просмотр не желателен-Качество видео: BDRip
    Формат видео: AVI | → //SAMPLE//
    Видео: 720x304 (2.37:1), 23.976 fps, XviD build 73 ~2070 kbps avg, 0.39 bit/pixel
    Аудио# 1: 48.0 kHz, AC3 Dolby Digital, 3/2 (L,C,R,l,r) + LFE ch, ~448.00 kbps avg | R5
    Аудио# 2: 48.0 kHz, AC3 Dolby Digital, 3/2 (L,C,R,l,r) + LFE ch, ~448.00 kbps avg | ENG
    Размер: 2975.56 Mb (2/3 DVD-R)

    MediaInfo

    Общее
    Полное имя : A:\Фильмы\Warrior.2011\Warrior.2011.XviD.2.91Gb.AC3.avi
    Формат : AVI
    Формат/Информация : Audio Video Interleave
    Профиль формата : OpenDML
    Размер файла : 2,91 Гбайт
    Продолжительность : 2 ч. 19 м.
    Общий поток : 2973 Кбит/сек
    Программа кодирования : VirtualDubMod 1.5.10.3 | www.virtualdub-fr.org || (build 2550/release)
    Библиотека кодирования : VirtualDubMod build 2550/release
    Видео
    Идентификатор : 0
    Формат : MPEG-4 Visual
    Профиль формата : Advanced Simple@L5
    Параметр BVOP формата : 1
    Параметр QPel формата : Нет
    Параметр GMC формата : Без точки перехода
    Параметр матрицы формата : Выборочная
    Идентификатор кодека : XVID
    Идентификатор кодека/Подсказка : XviD
    Продолжительность : 2 ч. 19 м.
    Битрейт : 2062 Кбит/сек
    Ширина : 720 пикселей
    Высота : 304 пикселя
    Соотношение сторон : 2,37:1
    Частота кадров : 23,976 кадра/сек
    Цветовое пространство : YUV
    Субдискретизация насыщенности : 4:2:0
    Битовая глубина : 8 бит
    Тип развёртки : Прогрессивная
    Метод сжатия : С потерями
    Бит/(Пиксели*Кадры) : 0.393
    Размер потока : 2,01 Гбайт (69%)
    Библиотека кодирования : XviD 73
    Аудио #1
    Идентификатор : 1
    Формат : AC-3
    Формат/Информация : Audio Coding 3
    Расширение режима : CM (complete main)
    Параметр Endianness формата : Big
    Идентификатор кодека : 2000
    Продолжительность : 2 ч. 19 м.
    Вид битрейта : Постоянный
    Битрейт : 448 Кбит/сек
    Каналы : 6 каналов
    Расположение каналов : Front: L C R, Side: L R, LFE
    Частота : 48,0 КГц
    Битовая глубина : 16 бит
    Метод сжатия : С потерями
    Размер потока : 448 Мбайт (15%)
    Выравнивание : Соединение по промежуткам
    Продолжительность промежутка : 42 мс. (1,00 видеокадр)
    Время предзагрузки промежутка : 512 мс.
    Аудио #2
    Идентификатор : 2
    Формат : AC-3
    Формат/Информация : Audio Coding 3
    Расширение режима : CM (complete main)
    Параметр Endianness формата : Big
    Идентификатор кодека : 2000
    Продолжительность : 2 ч. 19 м.
    Вид битрейта : Постоянный
    Битрейт : 448 Кбит/сек
    Каналы : 6 каналов
    Расположение каналов : Front: L C R, Side: L R, LFE
    Частота : 48,0 КГц
    Битовая глубина : 16 бит
    Метод сжатия : С потерями
    Размер потока : 448 Мбайт (15%)
    Выравнивание : Соединение по промежуткам
    Продолжительность промежутка : 42 мс. (1,00 видеокадр)
    Время предзагрузки промежутка : 512 мс.

    Скриншот c названием фильма

    Скриншоты

    Скачать .torrent

    Скачать торрент-файл бесплатно и на максимальной скорости!

    Как скачивать? · Что такое торрент? · Рейтинг и ограничения

    !ВНИМАНИЕ!
    Сайт не распространяет и не хранит электронные версии произведений, а занимается лишь лишь предоставлением доступа к создаваемому пользователями каталогу ссылок на торрент-файлы, которые содержат только списки хеш-сумм, убедительная просьба с жалобами обращаться напрямую к пользователю. Файлы для обмена на трекере предоставлены пользователями сайта, и администрация не несёт ответственности за их содержание. Просьба не заливать файлы, защищенные авторскими правами, а также файлы нелегального содержания!

    [Профиль] [ЛС]
    Показать сообщения:    
    Ответить на тему

    Текущее время: Сегодня, в 00:32

    Часовой пояс: GMT + 2



    Вы не можете начинать темы
    Вы не можете отвечать на сообщения
    Вы не можете редактировать свои сообщения
    Вы не можете удалять свои сообщения
    Вы не можете голосовать в опросах
    Вы не можете прикреплять файлы к сообщениям
    Вы не можете скачивать файлы