BitTorrentTracker PerecTracker.org
BitTorrentTracker PerecTracker.org
    
Регистрация  ·  Вход
 
 · 
Забыли пароль?

  • Судная ночь 2 / The Purge: Anarchy (Джеймс ДеМонако / James DeMonaco) [2014, США, Франция, триллер, криминал, боевик, WEBRip] MVO (Чистый звук)

    Ответить на тему
     
    Автор Сообщение

    Columb

    Создавать темы 10-Авг-2014 10:40

           

    [Цитировать]

    Судная ночь 2 / The Purge: Anarchy
    Страна: США, Франция
    Жанр: триллер, криминал, боевик
    Год выпуска: 2014
    Продолжительность: 01:43:28
    Перевод: Любительский (многоголосый закадровый) Чистый звук
    Cубтитры: китайские вшитые не отключаемые
    Оригинальная аудиодорожка: нет
    Режиссер: Джеймс ДеМонако / James DeMonaco
    В ролях: Фрэнк Грилло, Кармен Эджого, Зак Гилфорд, Киле Санчес, Майкл К. Уильямс, Зои Борд, Жустина Мачадо, Джон Бизли, Джек Конли, Ноэль Гульеми
    Описание: Добро пожаловать в идеальный мир будущего, мир без преступности и войн. И только один раз в году роскошная спокойная жизнь сменяется анархией. Этой ночью дозволено все: во тьме улиц одни жаждут мести, другие ищут развлечений, остальные пытаются дожить до рассвета…
    Доп. информация:

    Сэмпл: http://multi-up.com/991556
    Качество видео: WEBRip
    Формат видео: AVI
    Видео: 720x304 (2.37:1), 24 fps, XviD build 50 ~1753 kbps avg, 0.33 bit/pixel
    Аудио: 48 kHz, AC3 Dolby Digital, 2/0 (L,R) ch, ~128 kbps

    MediaInfo

    General
    Complete name : C:\Users\Вика\Desktop\The.Purge.Anarchy.2014.WEBDL-Rip.avi
    Format : AVI
    Format/Info : Audio Video Interleave
    File size : 1.37 GiB
    Duration : 1h 43mn
    Overall bit rate : 1 891 Kbps
    Writing application : VirtualDubMod 1.5.10.2 (build 2540/release)
    Writing library : VirtualDubMod build 2540/release
    Video
    ID : 0
    Format : MPEG-4 Visual
    Format profile : Advanced Simple@L5
    Format settings, BVOP : Yes
    Format settings, QPel : No
    Format settings, GMC : No warppoints
    Format settings, Matrix : Default (MPEG)
    Codec ID : XVID
    Codec ID/Hint : XviD
    Duration : 1h 43mn
    Bit rate : 1 754 Kbps
    Width : 720 pixels
    Height : 304 pixels
    Display aspect ratio : 2.35:1
    Frame rate : 24.000 fps
    Color space : YUV
    Chroma subsampling : 4:2:0
    Bit depth : 8 bits
    Scan type : Progressive
    Compression mode : Lossy
    Bits/(Pixel*Frame) : 0.334
    Stream size : 1.27 GiB (93%)
    Writing library : XviD 1.2.1 (UTC 2008-12-04)
    Audio
    ID : 1
    Format : AC-3
    Format/Info : Audio Coding 3
    Mode extension : CM (complete main)
    Format settings, Endianness : Big
    Codec ID : 2000
    Duration : 1h 43mn
    Bit rate mode : Constant
    Bit rate : 128 Kbps
    Channel count : 2 channels
    Channel positions : Front: L R
    Sampling rate : 48.0 KHz
    Bit depth : 16 bits
    Compression mode : Lossy
    Stream size : 94.7 MiB (7%)
    Alignment : Split accross interleaves
    Interleave, duration : 42 ms (1.00 video frame)
    Interleave, preload duration : 500 ms

    Скриншоты

    Скачать .torrent

    Скачать торрент-файл бесплатно и на максимальной скорости!

    Как скачивать? · Что такое торрент? · Рейтинг и ограничения

    !ВНИМАНИЕ!
    Сайт не распространяет и не хранит электронные версии произведений, а занимается лишь лишь предоставлением доступа к создаваемому пользователями каталогу ссылок на торрент-файлы, которые содержат только списки хеш-сумм, убедительная просьба с жалобами обращаться напрямую к пользователю. Файлы для обмена на трекере предоставлены пользователями сайта, и администрация не несёт ответственности за их содержание. Просьба не заливать файлы, защищенные авторскими правами, а также файлы нелегального содержания!

    [Профиль] [ЛС]

    -746

    Создавать темы 07-Дек-2014 13:24 (спустя 3 месяца 28 дней)

           

    Топик был перенесен из форума Зарубежные Фильмы (Новинки) в форум Фильмы 2014

    -sasha2006 

    _________________
    Как бы ты высоко не летал, не забывай, с кем ты ползал..
     
    Показать сообщения:    
    Ответить на тему

    Текущее время: Сегодня, в 19:57

    Часовой пояс: GMT + 2



    Вы не можете начинать темы
    Вы не можете отвечать на сообщения
    Вы не можете редактировать свои сообщения
    Вы не можете удалять свои сообщения
    Вы не можете голосовать в опросах
    Вы не можете прикреплять файлы к сообщениям
    Вы не можете скачивать файлы