Register  ·  Log in
Forgot password?

  • Могильный Хэллоуин / Grave Halloween (Стивен Р. Монро / Steven R. Monroe) [2013, Канада, ужасы, TVRip] VO (datynet)

    Reply to topic
    Author Message


    Post 10-Aug-2014 11:38



    Могильный Хэллоуин / Grave Halloween
    Страна: Канада
    Жанр: ужасы
    Год выпуска: 2013
    Продолжительность: 01:25:26
    Перевод: Одноголосый закадровый datynet
    Cубтитры: нет
    Оригинальная аудиодорожка: нет
    Режиссер: Стивен Р. Монро / Steven R. Monroe
    В ролях: Кейтлин Вонг, Касси Томсон, Деян Лойола, Грэхэм Уордл, Джесси Вилер, Том Стивенс, Джеффри Баллард, Хиро Канагава, Кеван Охтци
    Описание: Группа подростков отправилась в Лес Смерти. Вскоре им приходится пожалеть о том, что они пришли в это место…
    Доп. информация:

    Качество видео: TVRip
    Формат видео: AVI
    Видео: 720x408 (1.76:1), 25 fps, XviD build 50 ~1008 kbps avg, 0.14 bit/pixel
    Аудио: 44.100 kHz, MPEG Layer 3, 2 ch, ~192.00 kbps avg


    Complete name : C:\Users\Вика\Desktop\Grave.Halloween.2013.TVRip.avi
    Format : AVI
    Format/Info : Audio Video Interleave
    File size : 739 MiB
    Duration : 1h 25mn
    Overall bit rate : 1 210 Kbps
    Writing application : VirtualDubMod | || (build 2550/release)
    Writing library : VirtualDub build 34753/release
    ID : 0
    Format : MPEG-4 Visual
    Format profile : Simple@L0
    Format settings, BVOP : No
    Format settings, QPel : No
    Format settings, GMC : No warppoints
    Format settings, Matrix : Default (H.263)
    Codec ID : XVID
    Codec ID/Hint : XviD
    Duration : 1h 25mn
    Bit rate : 1 008 Kbps
    Width : 720 pixels
    Height : 408 pixels
    Display aspect ratio : 16:9
    Frame rate : 25.000 fps
    Color space : YUV
    Chroma subsampling : 4:2:0
    Bit depth : 8 bits
    Scan type : Progressive
    Compression mode : Lossy
    Bits/(Pixel*Frame) : 0.137
    Stream size : 616 MiB (83%)
    Writing library : XviD 1.2.1 (UTC 2008-12-04)
    ID : 1
    Format : MPEG Audio
    Format version : Version 1
    Format profile : Layer 3
    Codec ID : 55
    Codec ID/Hint : MP3
    Duration : 1h 25mn
    Bit rate mode : Constant
    Bit rate : 192 Kbps
    Channel count : 2 channels
    Sampling rate : 44.1 KHz
    Compression mode : Lossy
    Stream size : 117 MiB (16%)
    Alignment : Split accross interleaves
    Interleave, duration : 40 ms (1.00 video frame)
    Interleave, preload duration : 500 ms


    Download .torrent

    Download free and at maximum speed!

    How to Download? · What is a torrent? · Ratings and Limitations

    The site does not extend and does not store electronic(digital) versions of products, and only gives access to a reference catalogue created by users on torrent-files which contain only lists of the hash-sums, the earnest entreaty, with complaints(abuse) to access directly to the user. Files for an exchange on tracker are given by users of a site, and the administration does not bear the responsibility for their maintenance. The request to not fill in the files protected by copyrights, and also files of the illegal maintenance!

    [Profile] [PM]
    Display posts from previous:    
    Reply to topic

    The time now is: Today 08:25

    All times are GMT + 3 Hours

    You cannot post new topics in this forum
    You cannot reply to topics in this forum
    You cannot edit your posts in this forum
    You cannot delete your posts in this forum
    You cannot vote in polls in this forum
    You cannot attach files in this forum
    You cannot download files in this forum