Register  ·  Log in
Forgot password?

  • Проблеск в холодном воскресенье / Zablesky chladne nedele / Cold Sunday (Иван Покорны / Ivan Pokorný) [2012, Чехия, триллер, детектив, DVDRip] VO (Kass)

    Reply to topic
    Author Message


    Post 10-Aug-2014 11:37



    Проблеск в холодном воскресенье / Zablesky chladne nedele / Cold Sunday
    Страна: Чехия
    Жанр: триллер, детектив
    Год выпуска: 2012
    Продолжительность: 01:33:11
    Перевод: Одноголосый закадровый Kass
    Cубтитры: нет
    Оригинальная аудиодорожка: нет
    Режиссер: Иван Покорны / Ivan Pokorný
    В ролях: Адела Петржекова, Роберт Яшков, Ян Плухар, Криштоф Римский, Таня Медвецка, Зденек Жак
    Описание: Эффектная Дора сама запрыгивает в машину Адама, когда тот подыскивает эскорт для брата. Судя по виду, это опытная проститутка, за что-то потрепанная сутенером, который продолжает ее преследовать. Пользуясь ситуацией, Адам покупает ее на вечер и отвозит Дору в запущенную усадьбу к нелюдимому Мартину, человеку с темным прошлым. Ситуация скоро запутывается, и неясно, кто здесь кошка, а кто мышь.
    Доп. информация:

    Качество видео: DVDRip
    Формат видео: AVI
    Видео: 720x416 (1.73:1), 25 fps, XviD build 64 ~1774 kbps avg, 0.24 bit/pixel
    Аудио: 48 kHz, AC3 Dolby Digital, 3/2 (L,C,R,l,r) + LFE ch, ~448 kbps


    Complete name : C:\Users\Вика\Desktop\Cold.Sunday.2012.DVDRip.avi
    Format : AVI
    Format/Info : Audio Video Interleave
    File size : 1.45 GiB
    Duration : 1h 33mn
    Overall bit rate : 2 232 Kbps
    Writing application : VirtualDubMod | || (build 2550/release)
    Writing library : VirtualDubMod build 2550/release
    ID : 0
    Format : MPEG-4 Visual
    Format profile : Advanced Simple@L5
    Format settings, BVOP : Yes
    Format settings, QPel : No
    Format settings, GMC : No warppoints
    Format settings, Matrix : Default (H.263)
    Codec ID : XVID
    Codec ID/Hint : XviD
    Duration : 1h 33mn
    Bit rate : 1 775 Kbps
    Width : 720 pixels
    Height : 416 pixels
    Display aspect ratio : 1.731
    Frame rate : 25.000 fps
    Color space : YUV
    Chroma subsampling : 4:2:0
    Bit depth : 8 bits
    Scan type : Progressive
    Compression mode : Lossy
    Bits/(Pixel*Frame) : 0.237
    Stream size : 1.16 GiB (80%)
    Writing library : XviD 64
    ID : 1
    Format : AC-3
    Format/Info : Audio Coding 3
    Mode extension : CM (complete main)
    Format settings, Endianness : Big
    Codec ID : 2000
    Duration : 1h 33mn
    Bit rate mode : Constant
    Bit rate : 448 Kbps
    Channel count : 6 channels
    Channel positions : Front: L C R, Side: L R, LFE
    Sampling rate : 48.0 KHz
    Bit depth : 16 bits
    Compression mode : Lossy
    Stream size : 298 MiB (20%)
    Alignment : Split accross interleaves
    Interleave, duration : 40 ms (1.00 video frame)
    Interleave, preload duration : 500 ms


    Download .torrent

    Download free and at maximum speed!

    How to Download? · What is a torrent? · Ratings and Limitations

    The site does not extend and does not store electronic(digital) versions of products, and only gives access to a reference catalogue created by users on torrent-files which contain only lists of the hash-sums, the earnest entreaty, with complaints(abuse) to access directly to the user. Files for an exchange on tracker are given by users of a site, and the administration does not bear the responsibility for their maintenance. The request to not fill in the files protected by copyrights, and also files of the illegal maintenance!

    [Profile] [PM]
    Display posts from previous:    
    Reply to topic

    The time now is: Today 15:03

    All times are GMT + 3 Hours

    You cannot post new topics in this forum
    You cannot reply to topics in this forum
    You cannot edit your posts in this forum
    You cannot delete your posts in this forum
    You cannot vote in polls in this forum
    You cannot attach files in this forum
    You cannot download files in this forum