BitTorrentTracker PerecTracker.org
BitTorrentTracker PerecTracker.org
    
Регистрация  ·  Вход
 
 · 
Забыли пароль?

  • Проблеск в холодном воскресенье / Zablesky chladne nedele / Cold Sunday (Иван Покорны / Ivan Pokorný) [2012, Чехия, триллер, детектив, DVDRip] VO (Kass)

    Ответить на тему
     
    Автор Сообщение

    Columb

    Создавать темы 10-Авг-2014 10:37

           

    [Цитировать]

    Проблеск в холодном воскресенье / Zablesky chladne nedele / Cold Sunday
    Страна: Чехия
    Жанр: триллер, детектив
    Год выпуска: 2012
    Продолжительность: 01:33:11
    Перевод: Одноголосый закадровый Kass
    Cубтитры: нет
    Оригинальная аудиодорожка: нет
    Режиссер: Иван Покорны / Ivan Pokorný
    В ролях: Адела Петржекова, Роберт Яшков, Ян Плухар, Криштоф Римский, Таня Медвецка, Зденек Жак
    Описание: Эффектная Дора сама запрыгивает в машину Адама, когда тот подыскивает эскорт для брата. Судя по виду, это опытная проститутка, за что-то потрепанная сутенером, который продолжает ее преследовать. Пользуясь ситуацией, Адам покупает ее на вечер и отвозит Дору в запущенную усадьбу к нелюдимому Мартину, человеку с темным прошлым. Ситуация скоро запутывается, и неясно, кто здесь кошка, а кто мышь.
    Доп. информация:

    Сэмпл: http://multi-up.com/991553
    Качество видео: DVDRip
    Формат видео: AVI
    Видео: 720x416 (1.73:1), 25 fps, XviD build 64 ~1774 kbps avg, 0.24 bit/pixel
    Аудио: 48 kHz, AC3 Dolby Digital, 3/2 (L,C,R,l,r) + LFE ch, ~448 kbps

    MediaInfo

    General
    Complete name : C:\Users\Вика\Desktop\Cold.Sunday.2012.DVDRip.avi
    Format : AVI
    Format/Info : Audio Video Interleave
    File size : 1.45 GiB
    Duration : 1h 33mn
    Overall bit rate : 2 232 Kbps
    Writing application : VirtualDubMod 1.5.10.3 | www.virtualdub-fr.org || (build 2550/release)
    Writing library : VirtualDubMod build 2550/release
    Video
    ID : 0
    Format : MPEG-4 Visual
    Format profile : Advanced Simple@L5
    Format settings, BVOP : Yes
    Format settings, QPel : No
    Format settings, GMC : No warppoints
    Format settings, Matrix : Default (H.263)
    Codec ID : XVID
    Codec ID/Hint : XviD
    Duration : 1h 33mn
    Bit rate : 1 775 Kbps
    Width : 720 pixels
    Height : 416 pixels
    Display aspect ratio : 1.731
    Frame rate : 25.000 fps
    Color space : YUV
    Chroma subsampling : 4:2:0
    Bit depth : 8 bits
    Scan type : Progressive
    Compression mode : Lossy
    Bits/(Pixel*Frame) : 0.237
    Stream size : 1.16 GiB (80%)
    Writing library : XviD 64
    Audio
    ID : 1
    Format : AC-3
    Format/Info : Audio Coding 3
    Mode extension : CM (complete main)
    Format settings, Endianness : Big
    Codec ID : 2000
    Duration : 1h 33mn
    Bit rate mode : Constant
    Bit rate : 448 Kbps
    Channel count : 6 channels
    Channel positions : Front: L C R, Side: L R, LFE
    Sampling rate : 48.0 KHz
    Bit depth : 16 bits
    Compression mode : Lossy
    Stream size : 298 MiB (20%)
    Alignment : Split accross interleaves
    Interleave, duration : 40 ms (1.00 video frame)
    Interleave, preload duration : 500 ms

    Скриншоты

    Скачать .torrent

    Скачать торрент-файл бесплатно и на максимальной скорости!

    Как скачивать? · Что такое торрент? · Рейтинг и ограничения

    !ВНИМАНИЕ!
    Сайт не распространяет и не хранит электронные версии произведений, а занимается лишь лишь предоставлением доступа к создаваемому пользователями каталогу ссылок на торрент-файлы, которые содержат только списки хеш-сумм, убедительная просьба с жалобами обращаться напрямую к пользователю. Файлы для обмена на трекере предоставлены пользователями сайта, и администрация не несёт ответственности за их содержание. Просьба не заливать файлы, защищенные авторскими правами, а также файлы нелегального содержания!

    [Профиль] [ЛС]
    Показать сообщения:    
    Ответить на тему

    Текущее время: Сегодня, в 08:29

    Часовой пояс: GMT + 2



    Вы не можете начинать темы
    Вы не можете отвечать на сообщения
    Вы не можете редактировать свои сообщения
    Вы не можете удалять свои сообщения
    Вы не можете голосовать в опросах
    Вы не можете прикреплять файлы к сообщениям
    Вы не можете скачивать файлы